Спасённый светом / Спасительный свет / Saved by the Light (Льюис Тиг / Lewis Teague) [1995, США, Мистический триллер, DVDRip] AVO (Петр Карцев)

Ответить на тему
Статистика раздачи [Обновить пиров]
Размер:  745 MB   |    Зарегистрирован:  1 год 7 месяцев   |    Скачан:  0 раз

Полного источника не было: Никогда

 
   
 
 
 
Автор Сообщение

torrentc.info

Создавать темы 14-Фев-2017 13:49

[Цитировать]

Спасённый светом / Спасительный свет / Saved by the Light
Страна: США
Жанр: Мистический триллер
Год выпуска: 1995
Продолжительность: 01:30:52
Перевод: Авторский (одноголосый закадровый) Петр Карцев
Cубтитры: нет
Режиссер: Льюис Тиг / Lewis Teague
В ролях: Эрик Робертс, John Alexander, Элизабет Элли, Авис-Мари Барнс, Кристи Бойерле, Чик Бенжамин, Дэн Брайт, Марк Браун, К Кэллан, Мишель Картер
Описание: Всю свою жизнь ветеран Вьетнамской войны Дэннион Бринкли был грубым и жестоким человеком. Кроме жены и родственников, его ненавидели все жители их небольшого городка. И вот однажды ночью, когда он говорил по телефону, в него ударила молния. Обугленное тело Дэнниона нашла жена.
Но полчаса спустя, когда его уже везли в морг, он пришел в себя. После выздоровления, на протяжении которого Дэнниона преследовали какие-то непонятные видения, с ним произошли непостижимые изменения: он обрел способность предвидеть будущее и узнавать о судьбах исчезнувших людей по их фотографиям…
Доп. информация: Дорожка с П. Карцевым синхронизирована и наложена ale_x2008 при помощи Sony Vegas и VirtualDubMod.
P.S. 01:26:45 - 01:29:26 вставка DVO.
За предоставленную дорожку благодарим - RoxMarty

Релиз
Сэмпл: https://yadi.sk/i/7qwHKSHb3BeXDa
Качество видео: DVDRip [VHS ???]
Формат видео: AVI
Видео: XviD build 73, 704x528 (1.33:1), 23.976 fps, 944 kbps avg, 0.11 bit/pixel
Аудио: AC3 Dolby Digital, 48000Hz, 2/0 (L,R) ch (mono), 192.00 kbps avg

MediaInfo

Спасительный свет - Saved by the Light [by ale_x2008].avi
Format : AVI
Format/Info : Audio Video Interleave
File size : 745 MiB
Duration : 1 h 30 min
Overall bit rate : 1 146 kb/s
Movie name : Спасительный свет - Saved by the Light [by ale_x2008]
Director : by ale_x2008
Writing application : VirtualDubMod 1.5.10.2 (build 2540/release)
Copyright : Edich2
Comment : torrentc
Video
ID : 0
Format : MPEG-4 Visual
Format profile : Advanced Simple@L5
Format settings, BVOP : 1
Format settings, QPel : No
Format settings, GMC : No warppoints
Format settings, Matrix : Custom
Codec ID : XVID
Codec ID/Hint : XviD
Duration : 1 h 30 min
Bit rate : 945 kb/s
Width : 704 pixels
Height : 528 pixels
Display aspect ratio : 4:3
Frame rate : 23.976 (23976/1000) FPS
Color space : YUV
Chroma subsampling : 4:2:0
Bit depth : 8 bits
Scan type : Progressive
Compression mode : Lossy
Bits/(Pixel*Frame) : 0.106
Stream size : 614 MiB (82%)
Writing library : XviD 73
Audio
ID : 1
Format : AC-3
Format/Info : Audio Coding 3
Mode extension : CM (complete main)
Format settings, Endianness : Big
Codec ID : 2000
Duration : 1 h 30 min
Bit rate mode : Constant
Bit rate : 192 kb/s
Channel(s) : 2 channels
Channel positions : Front: L R
Sampling rate : 48.0 kHz
Frame rate : 31.250 FPS (1536 spf)
Compression mode : Lossy
Stream size : 125 MiB (17%)
Alignment : Split accross interleaves
Interleave, duration : 42 ms (1.00 video frame)
Interleave, preload duratio : 500 ms

Скриншоты




[torrentc.info]_torrent-5349110.torrent
Торрент: Зарегистрирован ·  [ 2017-02-14 13:48 ] ·  93f3b42712deea41c92f74e5c9292a290196a269

15 KB

Статус: проверено
Скачан: 0 раз
Размер: 745 MB
Оценка: 
(Голосов: 0)
Сказали спасибо: 0  Спасибо
Похожие темы
[Профиль]    [ЛС]
Показать сообщения:    
Ответить на тему

Текущее время: Сегодня 13:35

Часовой пояс: GMT + 7



Вы не можете начинать темы
Вы не можете отвечать на сообщения
Вы не можете редактировать свои сообщения
Вы не можете удалять свои сообщения
Вы не можете голосовать в опросах
Вы не можете прикреплять файлы к сообщениям
Вы можете скачивать файлы