Миссия: невыполнима 2 / Mission: Impossible II (Джон Ву / John Woo) [2000, США, боевик, триллер, HDRip] DVO (Премьер)

Ответить на тему
Статистика раздачи [Обновить пиров]
Размер:  1.46 GB   |    Зарегистрирован:  1 год 9 месяцев   |    Скачан:  0 раз

Полного источника не было: Никогда

 
   
 
 
 
Автор Сообщение

torrentc.info

Создавать темы 14-Фев-2017 13:49

[Цитировать]

Миссия: невыполнима 2 / Mission: Impossible II
Год выпуска: 2000
Страна: США
Жанр: боевик, триллер
Продолжительность: 02:03:35-Перевод: Профессиональный (двухголосый закадровый) Премьер
Текст читали: Всеволод Кузнецов и Людмила Ильина-Cубтитры: нет-Режиссер:
Джон Ву / John Woo-В ролях:
Том Круз, Дугрей Скотт, Энтони Хопкинс, Тенди Ньютон, Ричард Роксбург Джон Полсон, Винг Рэймс и др.-Описание:
Если мир внезапно оказывается перед лицом ужасной катастрофы, есть лишь один человек, который может исправить это ужасное положение. Его имя Итан Хант, он прирожденный специалист по разрешению самых неразрешимых ситуаций. Теперь у Итана — новый, строгий начальник, новая очаровательная возлюбленная, новый коварный противник и новое задание, которое простому смертному просто не по плечу. Но Итан Хант не был бы Итаном Хантом, если бы не смог с блеском выполнить очередную невыполнимую миссию: справиться с кровожадными террористами и спасти планету от ужасного, смертельного вируса.-Доп. информация: Здесь Hi-Fi звук, лучше чем во всех аналогичных раздачах с этим переводом. За предоставленную озвучку выражаем благодарность [url=profile.php?mode=viewprofile&u=760904]RoxMarty[/url]. Так же смотрите [url=viewtopic.php?t=5348727]историю создания фильма[/url] в русской озвучке от Премьер видео фильм.-Сэмпл-Качество видео: [url=viewtopic.php?t=3877629]HDRip[/url]
Формат видео: AVI-Видео: 720x304 (2.37:1), 23.976 fps, XviD build 50 ~1486 kbps avg, 0.28 bit/pixel
Аудио: 48 kHz, AC3 Dolby Digital, 2/0 (L,R) ch, 192.00 kbps

MediaInfo

General
Complete name : F:\Миссия невыполнима 2 (Премьер).avi
Format : AVI
Format/Info : Audio Video Interleave
File size : 1.46 GiB
Duration : 2 h 3 min
Overall bit rate : 1 688 kb/s
Writing application : VirtualDubMod 1.5.10.2 (build 2540/release)
Writing library : VirtualDubMod build 2540/release
Video
ID : 0
Format : MPEG-4 Visual
Format profile : Advanced Simple@L5
Format settings, BVOP : 1
Format settings, QPel : No
Format settings, GMC : No warppoints
Format settings, Matrix : Custom
Codec ID : XVID
Codec ID/Hint : XviD
Duration : 2 h 3 min
Bit rate : 1 486 kb/s
Width : 720 pixels
Height : 304 pixels
Display aspect ratio : 2.35:1
Frame rate : 23.976 (23976/1000) FPS
Color space : YUV
Chroma subsampling : 4:2:0
Bit depth : 8 bits
Scan type : Progressive
Compression mode : Lossy
Bits/(Pixel*Frame) : 0.283
Stream size : 1.28 GiB (88%)
Writing library : XviD 1.2.1 (UTC 2008-12-04)
Audio
ID : 1
Format : AC-3
Format/Info : Audio Coding 3
Mode extension : CM (complete main)
Format settings, Endianness : Big
Codec ID : 2000
Duration : 2 h 3 min
Bit rate mode : Constant
Bit rate : 192 kb/s
Channel(s) : 2 channels
Channel positions : Front: L R
Sampling rate : 48.0 kHz
Frame rate : 31.250 FPS (1536 spf)
Compression mode : Lossy
Stream size : 170 MiB (11%)
Alignment : Split accross interleaves
Interleave, duration : 42 ms (1.00 video frame)
Interleave, preload duratio : 500 ms

Скриншот c названием фильма

Скриншоты

Раздача обновлена, устранена проблема перепутанных каналов. Просьба перекачать торрент


[torrentc.info]_torrent-5348746.torrent
Торрент: Зарегистрирован ·  [ 2017-02-14 13:48 ] ·  b92c4dd222411cde35d26bbf19796db92c28ab41

15 KB

Статус: проверено
Скачан: 0 раз
Размер: 1.46 GB
Оценка: 
(Голосов: 0)
Сказали спасибо: 0  Спасибо
Похожие темы
[Профиль]    [ЛС]
Показать сообщения:    
Ответить на тему

Текущее время: Сегодня 07:38

Часовой пояс: GMT + 7



Вы не можете начинать темы
Вы не можете отвечать на сообщения
Вы не можете редактировать свои сообщения
Вы не можете удалять свои сообщения
Вы не можете голосовать в опросах
Вы не можете прикреплять файлы к сообщениям
Вы можете скачивать файлы