Войны каратэ / Karate Wars (Дэвид Хьюи / David Huey) [1991, Германия, США, Боевик, боевые искусства, VHSRip] AVO (Сергей Визгунов) + Original Eng + Sub (Ned)

Ответить на тему
Статистика раздачи [Обновить пиров]
Размер:  1.45 GB   |    Зарегистрирован:  1 год 5 месяцев   |    Скачан:  0 раз

Полного источника не было: Никогда

 
   
 
 
 
Автор Сообщение

torrentc.info

Создавать темы 14-Фев-2017 13:49

[Цитировать]

Войны каратэ / Karate Wars
Страна: Германия , США
Жанр: Боевик, боевые искусства
Год выпуска: 1991
Продолжительность: 1:32:01
Перевод: Авторский (одноголосый закадровый) Сергей Визгунов
Cубтитры: Нидерла́ндские
Оригинальная аудиодорожка: английский
Режиссер: Дэвид Хьюи / David Huey
В ролях: Крис Вульф
Ричард Рабаго
Джералд Окамура
Элси Джей
Тад Мэйтс
Гейб Рейнага
Лелаги Тогисала
Описание: На турнире"Войны каратэ"основным призом объявляется миллион долларов,соперники дожны выполнить all-or-nothing задачу.Студенты Оямы должны готовиться серьёзно,как в первый раз.Студент Джейсон и его одноклассники должны узнать о достоиствах данной дисциплины.
Доп. информация: За звуковую дорожку С. Визгунова спасибо Mixa_12345_mixa
Видеоряд найден в сети
Сэмпл: https://yadi.sk/i/EmHo-ApF3Bh54A
Качество видео: VHSRip
Формат видео: AVI
Видео: XviD , 640x480 (1.33:1) , 25.000 fps ,1 856 Kbps
Аудио: AC3 , 48 kHz , 192.00 kbps avg , 2/0 (L,R) ch
Аудио 2: AC3 , 48 kHz , 192.00 kbps avg , 2/0 (L,R) ch
Формат субтитров: hardsub (неотключаемые)

MediaInfo

Complete name Войны каратэ 1991 (Vizgunov).avi
Format : AVI
Format/Info : Audio Video Interleave
File size : 1.45 GiB
Duration : 1h 32mn
Overall bit rate : 2 254 Kbps
Writing application : VirtualDubMod 1.5.10.3 | www.virtualdub-fr.org || (build 2550/release)
Writing library : VirtualDubMod build 2550/release
Video
ID : 0
Format : MPEG-4 Visual
Format profile : Advanced Simple@L5
Format settings, BVOP : 1
Format settings, QPel : No
Format settings, GMC : No warppoints
Format settings, Matrix : Custom
Codec ID : XVID
Codec ID/Hint : XviD
Duration : 1h 32mn
Bit rate : 1 856 Kbps
Width : 640 pixels
Height : 480 pixels
Display aspect ratio : 4:3
Frame rate : 25.000 fps
Color space : YUV
Chroma subsampling : 4:2:0
Bit depth : 8 bits
Scan type : Progressive
Compression mode : Lossy
Bits/(Pixel*Frame) : 0.242
Stream size : 1.19 GiB (82%)
Writing library : XviD 73
Audio #1
ID : 1
Format : AC-3
Format/Info : Audio Coding 3
Mode extension : CM (complete main)
Format settings, Endianness : Big
Codec ID : 2000
Duration : 1h 32mn
Bit rate mode : Constant
Bit rate : 192 Kbps
Channel(s) : 2 channels
Channel positions : Front: L R
Sampling rate : 48.0 KHz
Frame rate : 31.250 fps (1536 spf)
Compression mode : Lossy
Stream size : 126 MiB (9%)
Alignment : Split accross interleaves
Interleave, duration : 40 ms (1.00 video frame)
Interleave, preload duratio : 500 ms
Audio #2
ID : 2
Format : AC-3
Format/Info : Audio Coding 3
Mode extension : CM (complete main)
Format settings, Endianness : Big
Codec ID : 2000
Duration : 1h 32mn
Bit rate mode : Constant
Bit rate : 192 Kbps
Channel(s) : 2 channels
Channel positions : Front: L R
Sampling rate : 48.0 KHz
Frame rate : 31.250 fps (1536 spf)
Compression mode : Lossy
Stream size : 126 MiB (9%)
Alignment : Split accross interleaves
Interleave, duration : 40 ms (1.00 video frame)
Interleave, preload duratio : 500 ms

Скриншоты



[torrentc.info]_torrent-5349263.torrent
Торрент: Зарегистрирован ·  [ 2017-02-14 13:48 ] ·  b05bf54de41d08e123ca2d61cc6af9411a2d8c71

15 KB

Статус: проверено
Скачан: 0 раз
Размер: 1.45 GB
Оценка: 
(Голосов: 0)
Сказали спасибо: 0  Спасибо
Похожие темы
[Профиль]    [ЛС]
Показать сообщения:    
Ответить на тему

Текущее время: Сегодня 12:12

Часовой пояс: GMT + 7



Вы не можете начинать темы
Вы не можете отвечать на сообщения
Вы не можете редактировать свои сообщения
Вы не можете удалять свои сообщения
Вы не можете голосовать в опросах
Вы не можете прикреплять файлы к сообщениям
Вы можете скачивать файлы