Стриптиз / Striptease (Эндрю Бергман / Andrew Bergman) [1996, США, драма, комедия, криминал, эротика, DVDRip-AVC] [Fullscreen] MVO + Sub Rus, Eng + Original Eng

Ответить на тему
Статистика раздачи [Обновить пиров]
Размер:  2.35 GB   |    Зарегистрирован:  1 год 9 месяцев   |    Скачан:  0 раз

Полного источника не было: Никогда

 
   
 
 
 
Автор Сообщение

torrentc.info

Создавать темы 14-Фев-2017 13:49

[Цитировать]

Стриптиз / Striptease / Fullscreen
Страна: США
Жанр: драма, комедия, криминал, эротика
Год выпуска: 1996
Продолжительность: 01:56:58
Перевод: Профессиональный (многоголосый закадровый)
Cубтитры: русские, английские
Оригинальная аудиодорожка: английский отдельным файлом
Режиссер: Эндрю Бергман / Andrew Bergman
В ролях: Деми Мур, Берт Рейнолдс, Арманд Ассанте, Винг Реймз, Роберт Патрик, Пол Гилфойл, Джерри Грэйсон, Румер Уиллис, Роберт Стэнтон, Уильям Хилл...
Описание: Эрин Гран — женщина, которая танцует стриптиз, чтобы решить серьезную финансовую проблему. Но все осложняется, когда сластолюбивый конгрессмен теряет из-за нее голову.
Доп. информация: За исходник видео спасибо Vouka. Синхронизация звука - Dreven.
Сэмпл: http://sendfile.su/1303923
Качество видео: DVDRip-AVC
Формат видео: MKV
Видео: 720x480 (4:3) @ 720x540, 23.976 fps, AVC, ~2300 Kbps, 0.278 bits/pixe
Аудио 1: Russian, 48.0 KHz, AC3, 6 ch, 384 Kbps
Аудио 2: English, 48.0 KHz, AC3, 2 ch, 192 Kbps отдельным файлом
[img]https://rating.kinopoisk.ru/9554.gif[/img]

Сравнение с широкоэкранной версией

Log

avs4x26x.exe: -L x264_64.exe --pass 2 --bitrate 2300 --preset medium --ref 10 --deblock -1:-1 --merange 32 --bframes 10 --direct auto --b-adapt 2 --trellis 2 --no-fast-pskip --subme 10 --me umh --rc-lookahead 50 --vbv-bufsize 14000 --vbv-maxrate 14000 --partitions p8x8,b8x8,i4x4,i8x8 --sar 8:9 --stats
raw [info]: 720x480p 8:9 @ 24000/1001 fps (cfr)
x264 [info]: using SAR=8/9
x264 [info]: using cpu capabilities: MMX2 SSE2Fast LZCNT
x264 [info]: profile High, level 3.1
x264 [info]: frame I:1281 Avg QP:16.10 size: 51569
x264 [info]: frame P:36253 Avg QP:18.63 size: 25361
x264 [info]: frame B:130730 Avg QP:21.54 size: 7895
x264 [info]: consecutive B-frames: 1.9% 1.8% 16.4% 7.1% 6.6% 62.6% 2.3% 0.5% 0.3% 0.1% 0.3%
x264 [info]: mb I I16..4: 2.6% 92.6% 4.7%
x264 [info]: mb P I16..4: 1.1% 25.0% 0.9% P16..4: 33.3% 23.1% 13.9% 0.0% 0.0% skip: 2.7%
x264 [info]: mb B I16..4: 0.2% 2.4% 0.1% B16..8: 41.8% 11.3% 2.9% direct: 9.8% skip:31.6% L0:39.5% L1:31.1% BI:29.4%
x264 [info]: 8x8 transform intra:92.3% inter:76.9%
x264 [info]: direct mvs spatial:96.9% temporal:3.1%
x264 [info]: coded y,uvDC,uvAC intra: 90.7% 89.5% 65.7% inter: 33.1% 36.8% 13.8%
x264 [info]: i16 v,h,dc,p: 25% 17% 14% 45%
x264 [info]: i8 v,h,dc,ddl,ddr,vr,hd,vl,hu: 15% 13% 26% 6% 7% 8% 7% 8% 9%
x264 [info]: i4 v,h,dc,ddl,ddr,vr,hd,vl,hu: 14% 12% 4% 9% 14% 14% 12% 10% 11%
x264 [info]: i8c dc,h,v,p: 44% 21% 20% 15%
x264 [info]: Weighted P-Frames: Y:5.2% UV:2.7%
x264 [info]: ref P L0: 43.9% 10.9% 18.0% 5.8% 6.4% 3.7% 4.4% 2.1% 2.7% 1.9% 0.1% 0.0%
x264 [info]: ref B L0: 77.7% 10.6% 4.1% 2.4% 1.7% 1.5% 1.2% 0.6% 0.2%
x264 [info]: ref B L1: 96.1% 3.9%
x264 [info]: kb/s:2299.89
x264 [total]: encoded 168264 frames, 9.09 fps, 2299.89 kb/s

MediaInfo

General
Unique ID : 200950963125063894908060364834642424861 (0x972DBF6AD05F3AA1AB5573B71E39741D)
Complete name : C:\Striptease [Fullscreen]\Striptease.mkv
Format : Matroska
Format version : Version 4 / Version 2
File size : 2.19 GiB
Duration : 1h 56mn
Overall bit rate : 2 686 Kbps
Encoded date : UTC 2017-01-30 14:38:54
Writing application : mkvmerge v9.7.1 ('Pandemonium') 64bit
Writing library : libebml v1.3.4 + libmatroska v1.4.5
Video
ID : 1
Format : AVC
Format/Info : Advanced Video Codec
Format profile : High@L3.1
Format settings, CABAC : Yes
Format settings, ReFrames : 10 frames
Codec ID : V_MPEG4/ISO/AVC
Duration : 1h 56mn
Bit rate : 2 300 Kbps
Width : 720 pixels
Height : 480 pixels
Display aspect ratio : 4:3
Frame rate mode : Constant
Frame rate : 23.976 (24000/1001) fps
Color space : YUV
Chroma subsampling : 4:2:0
Bit depth : 8 bits
Scan type : Progressive
Bits/(Pixel*Frame) : 0.278
Stream size : 1.88 GiB (86%)
Writing library : x264 core 148 r2744 b97ae06
Encoding settings : cabac=1 / ref=10 / deblock=1:-1:-1 / analyse=0x3:0x113 / me=umh / subme=10 / psy=1 / psy_rd=1.00:0.00 / mixed_ref=1 / me_range=32 / chroma_me=1 / trellis=2 / 8x8dct=1 / cqm=0 / deadzone=21,11 / fast_pskip=0 / chroma_qp_offset=-2 / threads=6 / lookahead_threads=1 / sliced_threads=0 / nr=0 / decimate=1 / interlaced=0 / bluray_compat=0 / constrained_intra=0 / bframes=10 / b_pyramid=2 / b_adapt=2 / b_bias=0 / direct=3 / weightb=1 / open_gop=0 / weightp=2 / keyint=250 / keyint_min=23 / scenecut=40 / intra_refresh=0 / rc_lookahead=50 / rc=2pass / mbtree=1 / bitrate=2300 / ratetol=1.0 / qcomp=0.60 / qpmin=0 / qpmax=69 / qpstep=4 / cplxblur=20.0 / qblur=0.5 / vbv_maxrate=14000 / vbv_bufsize=14000 / nal_hrd=none / filler=0 / ip_ratio=1.40 / aq=1:1.00
Language : English
Default : Yes
Forced : No
Audio
ID : 2
Format : AC-3
Format/Info : Audio Coding 3
Mode extension : CM (complete main)
Format settings, Endianness : Big
Codec ID : A_AC3
Duration : 1h 56mn
Bit rate mode : Constant
Bit rate : 384 Kbps
Channel(s) : 6 channels
Channel positions : Front: L C R, Side: L R, LFE
Sampling rate : 48.0 KHz
Frame rate : 31.250 fps (1536 spf)
Compression mode : Lossy
Stream size : 321 MiB (14%)
Language : Russian
Default : Yes
Forced : No
Text #1
ID : 3
Format : UTF-8
Codec ID : S_TEXT/UTF8
Codec ID/Info : UTF-8 Plain Text
Duration : 1h 51mn
Bit rate : 91 bps
Count of elements : 1014
Stream size : 74.8 KiB (0%)
Language : Russian
Default : No
Forced : No
Text #2
ID : 4
Format : UTF-8
Codec ID : S_TEXT/UTF8
Codec ID/Info : UTF-8 Plain Text
Duration : 1h 51mn
Bit rate : 68 bps
Count of elements : 1696
Stream size : 55.4 KiB (0%)
Language : English
Default : No
Forced : No
Menu
00:00:00.000 : :Chapter 01
00:01:28.868 : :Chapter 02
00:04:01.402 : :Chapter 03
00:07:09.203 : :Chapter 04
00:09:42.537 : :Chapter 05
00:11:48.104 : :Chapter 06
00:16:25.237 : :Chapter 07
00:19:13.071 : :Chapter 08
00:25:04.071 : :Chapter 09
00:27:43.805 : :Chapter 10
00:30:12.339 : :Chapter 11
00:35:13.207 : :Chapter 12
00:39:31.407 : :Chapter 13
00:42:48.375 : :Chapter 14
00:46:45.276 : :Chapter 15
00:49:53.576 : :Chapter 16
00:53:46.743 : :Chapter 17
00:55:39.577 : :Chapter 18
00:59:28.211 : :Chapter 19
01:02:41.112 : :Chapter 20
01:07:09.412 : :Chapter 21
01:09:34.545 : :Chapter 22
01:12:17.413 : :Chapter 23
01:16:24.580 : :Chapter 24
01:19:28.780 : :Chapter 25
01:21:54.381 : :Chapter 26
01:25:18.115 : :Chapter 27
01:28:16.083 : :Chapter 28
01:32:55.583 : :Chapter 29
01:36:40.150 : :Chapter 30
01:40:28.150 : :Chapter 31
01:42:55.150 : :Chapter 32
01:46:05.751 : :Chapter 33
01:48:34.251 : :Chapter 34
01:51:48.119 : :Chapter 35

Скриншоты



[torrentc.info]_torrent-5349724.torrent
Торрент: Зарегистрирован ·  [ 2017-02-14 13:48 ] ·  3388cea550df3ff02c61db9990c4a4e9a50fba2d

12 KB

Статус: проверено
Скачан: 0 раз
Размер: 2.35 GB
Оценка: 
(Голосов: 0)
Сказали спасибо: 0  Спасибо
Похожие темы
[Профиль]    [ЛС]
Показать сообщения:    
Ответить на тему

Текущее время: Сегодня 07:03

Часовой пояс: GMT + 7



Вы не можете начинать темы
Вы не можете отвечать на сообщения
Вы не можете редактировать свои сообщения
Вы не можете удалять свои сообщения
Вы не можете голосовать в опросах
Вы не можете прикреплять файлы к сообщениям
Вы можете скачивать файлы