Настоящая любовь / True Romance (Тони Скотт / Tony Scott) [1993, США, мелодрама, криминал, драма, BDRip] [Режиссерская версия] VO (Агма)

Ответить на тему
Статистика раздачи [Обновить пиров]
Размер:  1.49 GB   |    Зарегистрирован:  1 год 9 месяцев   |    Скачан:  0 раз

Полного источника не было: Никогда

 
   
 
 
 
Автор Сообщение

torrentc.info

Создавать темы 14-Фев-2017 13:49

[Цитировать]

Настоящая любовь / True Romance
Год выпуска: 1993
Страна: США
Жанр: мелодрама, криминал, драма
Продолжительность: 02:01:02-Перевод: Одноголосый закадровый Агма-Cубтитры: нет-Режиссер:
Тони Скотт / Tony Scott-В ролях:
Кристиан Слэйтер (Кларенс Уорли), Патриция Аркетт (Алабама), Майкл Рапапорт (Дик Риччи), Джеймс Гандольфини (Верджил), Бронсон Пиншо (Элиот Блицер), Деннис Хоппер (Клиффорд Уорли), Кристофер Уокен (Винченцо Кокутти), Сол Рубинек (Ли Доновиц), Гари Олдман (Дрексл) и др.-Описание:
Кларенс Уорли и Алабама Уитмэн познакомились и провели вместе ночь. Алабама призналась, что она делает первые шаги на трудном поприще «call-girl», то есть «девушки по вызову». Кларенс Уорли не был суперменом, однако, «навестив» сутенера Алабамы, оставил после себя два трупа — сутенера и его телохранителя-Доп. информация: За предоставленную озвучку выражаем благодарность [url=profile.php?mode=viewprofile&u=760904]RoxMarty[/url]. Данный перевод появляется на трекерах впервые-Сэмпл-Качество видео: [url=viewtopic.php?t=4809542]BDRip[/url]
Формат видео: AVI-Видео: XviD, 720x304 (2,35:1), 23.976 fps, 1558 kbps
Аудио: 48 khz, AC3 Dolby Digital, 2/0 (L,R) ch, ~192 kbps VHSRip

Сканы коробки VHS

MediaInfo

General
Complete name : C:\Users\User\Desktop\Настоящая любовь VO (Агма).avi
Format : AVI
Format/Info : Audio Video Interleave
File size : 1.49 GiB
Duration : 2 h 1 min
Overall bit rate : 1 759 kb/s
Writing application : VirtualDubMod 1.5.10.3 | www.virtualdub-fr.org || (build 2550/release)
Writing library : VirtualDubMod build 2550/release
Video
ID : 0
Format : MPEG-4 Visual
Format profile : Advanced Simple@L5
Format settings, BVOP : 1
Format settings, QPel : No
Format settings, GMC : No warppoints
Format settings, Matrix : Default (MPEG)
Codec ID : XVID
Codec ID/Hint : XviD
Duration : 2 h 1 min
Bit rate : 1 558 kb/s
Width : 720 pixels
Height : 304 pixels
Display aspect ratio : 2.35:1
Frame rate : 23.976 (24000/1001) FPS
Original frame rate : 23.976 (23976/1000) FPS
Color space : YUV
Chroma subsampling : 4:2:0
Bit depth : 8 bits
Scan type : Progressive
Compression mode : Lossy
Bits/(Pixel*Frame) : 0.297
Stream size : 1.32 GiB (89%)
Writing library : XviD 73
Audio
ID : 1
Format : AC-3
Format/Info : Audio Coding 3
Mode extension : CM (complete main)
Format settings, Endianness : Big
Codec ID : 2000
Duration : 2 h 1 min
Bit rate mode : Constant
Bit rate : 192 kb/s
Channel(s) : 2 channels
Channel positions : Front: L R
Sampling rate : 48.0 kHz
Frame rate : 31.250 FPS (1536 spf)
Bit depth : 16 bits
Compression mode : Lossy
Stream size : 166 MiB (11%)
Alignment : Split accross interleaves
Interleave, duration : 42 ms (1.00 video frame)
Interleave, preload duration : 500 ms

Скриншот c названием фильма

Скриншоты



[torrentc.info]_torrent-5349749.torrent
Торрент: Зарегистрирован ·  [ 2017-02-14 13:48 ] ·  7f817a7523141a0dcd7a529190985b97cb2d0fb6

15 KB

Статус: проверено
Скачан: 0 раз
Размер: 1.49 GB
Оценка: 
(Голосов: 0)
Сказали спасибо: 0  Спасибо
Похожие темы
[Профиль]    [ЛС]
Показать сообщения:    
Ответить на тему

Текущее время: Сегодня 22:34

Часовой пояс: GMT + 7



Вы не можете начинать темы
Вы не можете отвечать на сообщения
Вы не можете редактировать свои сообщения
Вы не можете удалять свои сообщения
Вы не можете голосовать в опросах
Вы не можете прикреплять файлы к сообщениям
Вы можете скачивать файлы