Кошмар на улице Вязов 7: Новый кошмар / New Nightmare (Уэс Крэйвен / Wes Craven) [1994, США, Ужасы, BDRip] AVO (Андрей Гаврилов) + VO (Младокашкин) +Original Eng

Ответить на тему
Статистика раздачи [Обновить пиров]
Размер:  2.14 GB   |    Зарегистрирован:  1 год 9 месяцев   |    Скачан:  0 раз

Полного источника не было: Никогда

 
   
 
 
 
Автор Сообщение

torrentc.info

Создавать темы 14-Фев-2017 13:49

[Цитировать]

Кошмар на улице Вязов 7: Новый кошмар / New Nightmare
«This time, staying awake won't save you»
Страна: США
Жанр: Ужасы
Год выпуска: 1994
Продолжительность: 01:52:07
Перевод: Авторский (одноголосый закадровый) Андрей Гаврилов
Перевод: Одноголосый закадровый Младокашкин
Cубтитры: нет
Режиссер: Уэс Крэйвен / Wes Craven
В ролях: Джефф Дэвис, Хэзер Лэнгенкэмп, Мико Хьюз, Мэтт Уинстон, Роб ЛаБелль, Дэвид Ньюсом, Уэс Крэйвен, Марианн Маддалена, Гретхен Ёлер, Трэйси Миддендорф, Роберт Инглунд
Описание: На съёмках очередной серии фильма «Кошмар на улице Вязов» происходит несчастный случай: новая, технически совершенная перчатка Фредди убивает работников со спецэффектами и ранит Чейза Портера — мужа Хизер Ландженкамп, исполнительницы роли Нэнси. Сын Хизер исчезает непонятным образом. Но вот Хизер просыпается из-за землетрясения и понимает, что это был всего лишь сон. Однако её муж порезал пальцы именно так, как это случилось в её сне…
Доп. информация: Дорожка синхронизирована и наложена ale_x2008 при помощи Sony Vegas и VirtualDubMod.
За оцифрованную с VHS дорожку благодарим - Raptorio Rio

Дорожка с А. Гавриловым синхронизирована и наложена ale_x2008 при помощи Sony Vegas и VirtualDubMod.
За предоставленную дорожку благодарим - Krasnovv

Релиз
Сэмпл: https://yadi.sk/i/h1tSvXR53ByPDR
Качество видео: BDRip (torrentc)
Формат видео: AVI
Видео: 704x400 (1.76:1), 23.976 fps, XviD MPEG-4 ~1888 kbps avg, 0.28 bit/pixel
Аудио: AC3 Dolby Digital, 48000Hz, 2/0 (L,R) ch (stereo), 192.00 kbps avg Gavrilov
Аудио 2: AC3 Dolby Digital, 48000Hz, 2/0 (L,R) ch (mono), 192.00 kbps avg VO
Аудио 2: 48 kHz, AC3 Dolby Digital, 3/2 (L,C,R,l,r) + LFE ch, ~448 kbps

MediaInfo

Кошмар на улице Вязов 7 Новый кошмар - New Nightmare [by ale_x2008] fix.avi
Format : AVI
Format/Info : Audio Video Interleave
Format profile : OpenDML
File size : 2.14 GiB
Duration : 1 h 52 min
Overall bit rate : 2 727 kb/s
Movie name : Кошмар на улице Вязов 7: Новый Кошмар / New Nightmare (1994) BDRip
Director : Flynn82
Genre : Horror/Fantasy
Writing application : VirtualDubMod 1.5.10.2 (build 2540/release)
Copyright : ale_x2008 | Edich2
Comment : torrentc
Video
ID : 0
Format : MPEG-4 Visual
Format profile : Advanced Simple@L5
Format settings, BVOP : 1
Format settings, QPel : No
Format settings, GMC : No warppoints
Format settings, Matrix : Custom
Codec ID : XVID
Codec ID/Hint : XviD
Duration : 1 h 52 min
Bit rate : 1 871 kb/s
Width : 704 pixels
Height : 400 pixels
Display aspect ratio : 16:9
Frame rate : 23.976 (24000/1001) FPS
Color space : YUV
Chroma subsampling : 4:2:0
Bit depth : 8 bits
Scan type : Progressive
Compression mode : Lossy
Bits/(Pixel*Frame) : 0.277
Stream size : 1.47 GiB (69%)
Writing library : XviD 72
Audio #1
ID : 1
Format : AC-3
Format/Info : Audio Coding 3
Mode extension : CM (complete main)
Format settings, Endianness : Big
Codec ID : 2000
Duration : 1 h 52 min
Bit rate mode : Constant
Bit rate : 192 kb/s
Channel(s) : 2 channels
Channel positions : Front: L R
Sampling rate : 48.0 kHz
Frame rate : 31.250 FPS (1536 spf)
Compression mode : Lossy
Stream size : 154 MiB (7%)
Alignment : Split accross interleaves
Interleave, duration : 42 ms (1.00 video frame)
Interleave, preload duratio : 500 ms
Audio #2
ID : 2
Format : AC-3
Format/Info : Audio Coding 3
Mode extension : CM (complete main)
Format settings, Endianness : Big
Codec ID : 2000
Duration : 1 h 52 min
Bit rate mode : Constant
Bit rate : 192 kb/s
Channel(s) : 2 channels
Channel positions : Front: L R
Sampling rate : 48.0 kHz
Frame rate : 31.250 FPS (1536 spf)
Compression mode : Lossy
Stream size : 154 MiB (7%)
Alignment : Split accross interleaves
Interleave, duration : 42 ms (1.00 video frame)
Interleave, preload duratio : 500 ms
Audio #3
ID : 3
Format : AC-3
Format/Info : Audio Coding 3
Mode extension : CM (complete main)
Format settings, Endianness : Big
Codec ID : 2000
Duration : 1 h 52 min
Bit rate mode : Constant
Bit rate : 448 kb/s
Channel(s) : 6 channels
Channel positions : Front: L C R, Side: L R, LFE
Sampling rate : 48.0 kHz
Frame rate : 31.250 FPS (1536 spf)
Compression mode : Lossy
Stream size : 359 MiB (16%)
Alignment : Split accross interleaves
Interleave, duration : 42 ms (1.00 video frame)
Interleave, preload duratio : 500 ms

Скриншоты




[torrentc.info]_torrent-5293649.torrent
Торрент: Зарегистрирован ·  [ 2017-02-14 13:48 ] ·  b0657d0965d512cbf8527cfe12bdb5c1aba9ce99

11 KB

Статус: проверено
Скачан: 0 раз
Размер: 2.14 GB
Оценка: 
(Голосов: 0)
Сказали спасибо: 0  Спасибо
Похожие темы
[Профиль]    [ЛС]
Показать сообщения:    
Ответить на тему

Текущее время: Сегодня 07:29

Часовой пояс: GMT + 7



Вы не можете начинать темы
Вы не можете отвечать на сообщения
Вы не можете редактировать свои сообщения
Вы не можете удалять свои сообщения
Вы не можете голосовать в опросах
Вы не можете прикреплять файлы к сообщениям
Вы можете скачивать файлы