Ночные кошмары Тоба Хупера / Ночные ужасы Тоба Хупера / Night Terrors / Tobe Hooper\'s Night Terrors / Nightmare Nights of Terror (Тоуб Хупер /Tobe Hooper) [1993, США, Канада, Египет, ужасы, мистика, VHSRip] AVO (Андрей Дольский)

Ответить на тему
Статистика раздачи [Обновить пиров]
Размер:  1.37 GB   |    Зарегистрирован:  1 год 5 месяцев   |    Скачан:  0 раз

Полного источника не было: Никогда

 
   
 
 
 
Автор Сообщение

torrentc.info

Создавать темы 14-Фев-2017 13:49

[Цитировать]

Ночные кошмары Тоба Хупера / Ночные ужасы Тоба Хупера / Night Terrors / Tobe Hooper's Night Terrors / Nightmare Nights of Terror
Страна: США, Канада, Египет
Жанр: Ужасы, Мистика
Год выпуска: 1993
Продолжительность: 01:34:24
Перевод: Авторский (одноголосый закадровый) Андрей Дольский
Cубтитры: нет
Режиссер: Тоуб Хупер /Tobe Hooper
В ролях: Роберт Энглунд , Зоэ Триллинг , Алона Кимхи , Джулиано Мерр , Чандра Уэст , Уильям Финли
Описание: 1. Аннотация от alenavova
Соединение в одном фильме Роберта Инглунда, бессменного исполнителя роли Фредди Крюгера в "Кошмаре на улице вязов", и Тоуба Хупера, мастера ужасов и, кстати, постановщика "Кошмаров Фредди" с тем же Инглундом, дает что? Правильно: очередные "Ночные кошмары". С сюжетом, правда, оригинальным. 2 временные плоскости пересекаются в фильме: рубеж 18-19-го веков, когда знаменитый философ жестокости маркиз де Сад был заключен в темницу, и наши дни, когда в Александрию приехала дочка археолога Мэттисона Джинни. Пока папаша копается в гробницах, дочка с упоением читает творения де Сада, которые ей дала таинственная развратница Сабина. Не будем скрывать: Джинни - жертва... Удивительно, что маркиз де Сад так редко осчастливливает кинематограф своим присутствием. И как это только Хупер с Инглундом додумались заставить ветхозаветного маркиза лить воду на свою кровавую мельницу?
2. Навороченный, эротический "ужастик", проясняющий визуально, что такое садизм и с чем его едят. Мадам де Бомон - любовница короля, из-за которой легендарный маркиз де Сад угодил за решетку. В наше время в Египте через своего потомка де Сад (Энглунд), обуреваемый жаждой мести, добирается до девушки, удивительно похожей на мадам Бомон (Триллинг). Наша симпатичная героиня приехала в Александрию к своему отцу-археологу и уж никак не ожидала такого ужасного поворота событий. (Иванов М.)
Доп. информация: Оцифровка VHS (личный архив) и получение VHSRip alenavova
Эксклюзив для torrentc. При размещении данного релиза на других сайтах ссылка на автора
Релиз
Сэмпл: https://yadi.sk/i/WmqVF5dg3C2CNm
Качество видео: VHSRip
Формат видео: AVI
Видео: 720x544 (1.32:1), 25 fps, XviD build 73 ~1871 kbps avg, 0.19 bit/pixel
Аудио: 48 kHz, AC3 Dolby Digital, 2/0 (L,R) ch, ~192 kbps

MediaInfo

Ночные кошмары Тоба Хупера - Tobe Hooper's Night Terrors [by alenavova].avi
Format : AVI
Format/Info : Audio Video Interleave
File size : 1.37 GiB
Duration : 1 h 34 min
Overall bit rate : 2 073 kb/s
Movie name : Ночные кошмары Тоба Хупера - Tobe Hooper's Night Terrors [by alenavova]
Director : by alenavova
Writing application : VirtualDubMod 1.5.10.3 | www.virtualdub-fr.org || (build 2550/release)
Copyright : Edich2
Comment : torrentc
Video
ID : 0
Format : MPEG-4 Visual
Format profile : Advanced Simple@L5
Format settings, BVOP : 1
Format settings, QPel : No
Format settings, GMC : No warppoints
Format settings, Matrix : Custom
Codec ID : XVID
Codec ID/Hint : XviD
Duration : 1 h 34 min
Bit rate : 1 872 kb/s
Width : 720 pixels
Height : 544 pixels
Display aspect ratio : 4:3
Frame rate : 25.000 FPS
Color space : YUV
Chroma subsampling : 4:2:0
Bit depth : 8 bits
Scan type : Progressive
Compression mode : Lossy
Bits/(Pixel*Frame) : 0.191
Stream size : 1.23 GiB (90%)
Writing library : XviD 73
Audio
ID : 1
Format : AC-3
Format/Info : Audio Coding 3
Mode extension : CM (complete main)
Format settings, Endianness : Big
Codec ID : 2000
Duration : 1 h 34 min
Bit rate mode : Constant
Bit rate : 192 kb/s
Channel(s) : 2 channels
Channel positions : Front: L R
Sampling rate : 48.0 kHz
Frame rate : 31.250 FPS (1536 spf)
Compression mode : Lossy
Stream size : 130 MiB (9%)
Alignment : Split accross interleaves
Interleave, duration : 40 ms (1.00 video frame)
Interleave, preload duratio : 500 ms

Скриншоты




[torrentc.info]_torrent-5350044.torrent
Торрент: Зарегистрирован ·  [ 2017-02-14 13:48 ] ·  847c55351d6b0f03cc84e9b4e5e4bb422e78bde8

14 KB

Статус: проверено
Скачан: 0 раз
Размер: 1.37 GB
Оценка: 
(Голосов: 0)
Сказали спасибо: 0  Спасибо
Похожие темы
[Профиль]    [ЛС]
Показать сообщения:    
Ответить на тему

Текущее время: Сегодня 01:01

Часовой пояс: GMT + 7



Вы не можете начинать темы
Вы не можете отвечать на сообщения
Вы не можете редактировать свои сообщения
Вы не можете удалять свои сообщения
Вы не можете голосовать в опросах
Вы не можете прикреплять файлы к сообщениям
Вы можете скачивать файлы