Злоупотребление / Лотерея / La riffa (Франческо Лаудадио / Francesco Laudadio) [1991, Италия, драма, DVDRip] VO + Original Ita

Ответить на тему
Статистика раздачи [Обновить пиров]
Размер:  1.45 GB   |    Зарегистрирован:  1 год 7 месяцев   |    Скачан:  0 раз

Полного источника не было: Никогда

 
   
 
 
 
Автор Сообщение

torrentc.info

Создавать темы 14-Фев-2017 13:49

[Цитировать]

Злоупотребление / Лотерея / La riffa
Страна: Италия
Жанр: драма
Год выпуска: 1991
Продолжительность: 01:24:55
Перевод: Одноголосый закадровый
Cубтитры: нет
Оригинальная аудиодорожка: итальянский

Режиссер: Франческо Лаудадио / Francesco Laudadio
В ролях: Моника Беллуччи, Джулио Скарпати, Массимо Гини, Елена Кантароне, Карла Кассола, Сандра Коллодел, Паоло Бусири Вичи Д’Арчевия, Паоло Де Вита, Роберто Делла Каза, Барбара Кристина Энгельхардт
Описание: Франческа, молодая итальянская мещанка, которая только что потеряла мужа, обязана продавать все имущество, в том числе одежду и драгоценности, чтобы оплатить долги мужа и заботиться о дочке. ..
Качество видео: [url=viewtopic.php?t=1966603]DVDRip[/url]
Формат видео: AVI
Видео: 672x400 (1.68:1), 25 fps, XviD build 73 ~2020 kbps avg, 0.30 bit/pixel
Аудио: 48 kHz, AC3 Dolby Digital, 2/0 (L,R) ch, ~192 kbps - одноголосый
Аудио: 48 kHz, AC3 Dolby Digital, 2/0 (L,R) ch, ~224 kbps - оригинал

Сравнение

[url=viewtopic.php?t=2350134]http://torrentc/forum/viewtopic.php?t=2350134[/url]
Битрейт там на самом деле не 2400, а куда больше
Недокроп слева и перекроп справа. Не мод 16
Поля плавают. У меня отрезано по самому минимуму

MediaInfo

General
Complete name : H:\La.Riffa.1991.dvdrip_[1.46]_[teko].avi
Format : AVI
Format/Info : Audio Video Interleave
File size : 1.45 GiB
Duration : 1h 24mn
Overall bit rate : 2 451 Kbps
Writing application : VirtualDubMod 1.5.10.3 | www.virtualdub-fr.org || (build 2550/release)
Writing library : VirtualDubMod build 2550/release
Video
ID : 0
Format : MPEG-4 Visual
Format profile : Advanced Simple@L5
Format settings, BVOP : 2
Format settings, QPel : No
Format settings, GMC : No warppoints
Format settings, Matrix : Custom
Codec ID : XVID
Codec ID/Hint : XviD
Duration : 1h 24mn
Bit rate : 2 021 Kbps
Width : 672 pixels
Height : 400 pixels
Display aspect ratio : 5:3
Frame rate : 25.000 fps
Color space : YUV
Chroma subsampling : 4:2:0
Bit depth : 8 bits
Scan type : Progressive
Compression mode : Lossy
Bits/(Pixel*Frame) : 0.301
Stream size : 1.20 GiB (82%)
Writing library : XviD 73
Audio #1
ID : 1
Format : AC-3
Format/Info : Audio Coding 3
Mode extension : CM (complete main)
Format settings, Endianness : Big
Codec ID : 2000
Duration : 1h 24mn
Bit rate mode : Constant
Bit rate : 192 Kbps
Channel(s) : 2 channels
Channel positions : Front: L R
Sampling rate : 48.0 KHz
Frame rate : 31.250 fps (1536 spf)
Compression mode : Lossy
Stream size : 117 MiB (8%)
Alignment : Split accross interleaves
Interleave, duration : 40 ms (1.00 video frame)
Interleave, preload duratio : 500 ms
Audio #2
ID : 2
Format : AC-3
Format/Info : Audio Coding 3
Format profile : Dolby Digital
Mode extension : CM (complete main)
Format settings, Endianness : Big
Codec ID : 2000
Duration : 1h 24mn
Bit rate mode : Constant
Bit rate : 224 Kbps
Channel(s) : 2 channels
Channel positions : Front: L R
Sampling rate : 48.0 KHz
Frame rate : 31.250 fps (1536 spf)
Compression mode : Lossy
Stream size : 136 MiB (9%)
Alignment : Split accross interleaves
Interleave, duration : 40 ms (1.00 video frame)
Interleave, preload duratio : 500 ms

Скриншоты

Релиз группы:
[url=viewtopic.php?t=1677970] [/url]
--


[torrentc.info]_torrent-5350049.torrent
Торрент: Зарегистрирован ·  [ 2017-02-14 13:48 ] ·  3f8edf6a6f24c61a0a2f1f98a4d9b141cb325d55

15 KB

Статус: проверено
Скачан: 0 раз
Размер: 1.45 GB
Оценка: 
(Голосов: 0)
Сказали спасибо: 0  Спасибо
Похожие темы
[Профиль]    [ЛС]
Показать сообщения:    
Ответить на тему

Текущее время: Сегодня 13:28

Часовой пояс: GMT + 7



Вы не можете начинать темы
Вы не можете отвечать на сообщения
Вы не можете редактировать свои сообщения
Вы не можете удалять свои сообщения
Вы не можете голосовать в опросах
Вы не можете прикреплять файлы к сообщениям
Вы можете скачивать файлы