Западня / Подставка / The Set Up (Стрэтфорд Хэмилтон / Strathford Hamilton) [1995, США, триллер, DVDRip] DVO (НТВ+) + AVO (Сергей Кузнецов) + AVO (Михаил Иванов)

Ответить на тему
Статистика раздачи [Обновить пиров]
Размер:  1.62 GB   |    Зарегистрирован:  1 год 5 месяцев   |    Скачан:  0 раз

Полного источника не было: Никогда

 
   
 
 
 
Автор Сообщение

torrentc.info

Создавать темы 14-Фев-2017 13:49

[Цитировать]

Западня / The Set Up
«The perfect set up for fans of electrifying thrillers!»
Страна: США
Жанр: триллер
Год выпуска: 1995
Продолжительность: 01:32:49
Перевод: Профессиональный (двухголосый закадровый) НТВ+
Перевод 2: Авторский (одноголосый закадровый) Сергей Кузнецов
Перевод 3: Авторский (одноголосый закадровый) Михаил Иванов
Cубтитры: нет
Режиссер: Стрэтфорд Хэмилтон / Strathford Hamilton
В ролях: Билли Зейн, Миа Сара, Кевин МакЛафлин, Рой Дженсон, Брент Моррис, Эд Вассер, Паула О`Хара, Шеннон Уилкокс, Лиза Коллинз, Маргарет Эйвери, Марк Ролстон, Томми Листер, Луис Мэндилор, Джеймс Кобурн, Джеймс Руссо
Описание: Этот блестящий триллер поставлен по книге Джеймса Хэдли Чейза "Я буду смеяться последним", что и обуславливает крепкий и продуманный сюжет. Пересказывать его я не собираюсь. Скажу только, что дело касается ограбления банка, любви, коварства и обмана. А кто будет смеяться последним, вы узнаете сами. (М. Иванов)
Доп. информация: Спасибо XALEX_EXE за предоставленный видеоряд.
За дорожку DVO спасибо lord25

Дорожка с С. Кузнецовым синхронизирована и наложена ale_x2008 при помощи Sony Vegas и VirtualDubMod.
За предоставленную дорожку благодарим - RoxMarty
Дорожка с М. Ивановым синхронизирована, ремастерирована и наложена ale_x2008 при помощи Sony Vegas и VirtualDubMod.
За предоставленную дорожку благодарим - buyanoff.vladimir

Релиз
Сэмпл: https://yadi.sk/i/0ODCkIwb3C5atE
Качество видео: DVDRip
Формат видео: AVI
Видео: 640x480 (1.33:1), 23.976 fps, XviD build 65 ~1907 kbps avg, 0.26 bit/pixel
Аудио: 48 kHz, AC3 Dolby Digital, 2 ch, ~192.00 kbps avg DVO
Аудио: AC3 Dolby Digital, 48000Hz, 2/0 (L,R) ch (mono), 192.00 kbps avg AVO Ku.
Аудио: AC3 Dolby Digital, 48000Hz, 2/0 (L,R) ch (mono), 192.00 kbps avg AVO Iv.

MediaInfo

Западня - The Set Up [by Edich2] fix.avi
Format : AVI
Format/Info : Audio Video Interleave
File size : 1.62 GiB
Duration : 1 h 32 min
Overall bit rate : 2 502 kb/s
Movie name : Западня - The Set Up [by Edich2]
Director : by Edich2
Writing application : VirtualDubMod 1.5.10.2 (build 2540/release)
Comment : torrentc
Video
ID : 0
Format : MPEG-4 Visual
Format profile : Advanced Simple@L5
Format settings, BVOP : 1
Format settings, QPel : No
Format settings, GMC : No warppoints
Format settings, Matrix : Default (MPEG)
Codec ID : XVID
Codec ID/Hint : XviD
Duration : 1 h 32 min
Bit rate : 1 908 kb/s
Width : 640 pixels
Height : 480 pixels
Display aspect ratio : 4:3
Frame rate : 23.976 (23976/1000) FPS
Color space : YUV
Chroma subsampling : 4:2:0
Bit depth : 8 bits
Scan type : Progressive
Compression mode : Lossy
Bits/(Pixel*Frame) : 0.259
Stream size : 1.24 GiB (76%)
Writing library : XviD 65
Audio #1
ID : 1
Format : AC-3
Format/Info : Audio Coding 3
Mode extension : CM (complete main)
Format settings, Endianness : Big
Codec ID : 2000
Duration : 1 h 32 min
Bit rate mode : Constant
Bit rate : 192 kb/s
Channel(s) : 2 channels
Channel positions : Front: L R
Sampling rate : 48.0 kHz
Frame rate : 31.250 FPS (1536 spf)
Compression mode : Lossy
Delay relative to video : 2 s 500 ms
Stream size : 127 MiB (8%)
Alignment : Split accross interleaves
Interleave, duration : 42 ms (1.00 video frame)
Interleave, preload duratio : 500 ms
Audio #2
ID : 2
Format : AC-3
Format/Info : Audio Coding 3
Mode extension : CM (complete main)
Format settings, Endianness : Big
Codec ID : 2000
Duration : 1 h 32 min
Bit rate mode : Constant
Bit rate : 192 kb/s
Channel(s) : 2 channels
Channel positions : Front: L R
Sampling rate : 48.0 kHz
Frame rate : 31.250 FPS (1536 spf)
Compression mode : Lossy
Delay relative to video : 2 s 500 ms
Stream size : 127 MiB (8%)
Alignment : Split accross interleaves
Interleave, duration : 42 ms (1.00 video frame)
Interleave, preload duratio : 500 ms
Audio #3
ID : 3
Format : AC-3
Format/Info : Audio Coding 3
Mode extension : CM (complete main)
Format settings, Endianness : Big
Codec ID : 2000
Duration : 1 h 32 min
Bit rate mode : Constant
Bit rate : 192 kb/s
Channel(s) : 2 channels
Channel positions : Front: L R
Sampling rate : 48.0 kHz
Frame rate : 31.250 FPS (1536 spf)
Compression mode : Lossy
Delay relative to video : 2 s 500 ms
Stream size : 127 MiB (8%)
Alignment : Split accross interleaves
Interleave, duration : 42 ms (1.00 video frame)
Interleave, preload duratio : 500 ms

Скриншоты




ТОРРЕНТ ПЕРЕЗАЛИТ
ДОБАВЛЕНЫ ДОРОЖКИ С АВТОРСКИМИ ПЕРЕВОДАМИ.


[torrentc.info]_torrent-5000283.torrent
Торрент: Зарегистрирован ·  [ 2017-02-14 13:48 ] ·  5bff8031f69568592e3c62dae1082d274476ed00

17 KB

Статус: проверено
Скачан: 0 раз
Размер: 1.62 GB
Оценка: 
(Голосов: 0)
Сказали спасибо: 0  Спасибо
Похожие темы
[Профиль]    [ЛС]
Показать сообщения:    
Ответить на тему

Текущее время: Сегодня 12:10

Часовой пояс: GMT + 7



Вы не можете начинать темы
Вы не можете отвечать на сообщения
Вы не можете редактировать свои сообщения
Вы не можете удалять свои сообщения
Вы не можете голосовать в опросах
Вы не можете прикреплять файлы к сообщениям
Вы можете скачивать файлы