Грязные парни / Плохие парни / Bad Boys (Майкл Бэй / Michael Bay) [1995, США, Комедийный боевик, Workprint] VO ("Младокашкин")

Ответить на тему
Статистика раздачи [Обновить пиров]
Размер:  1.37 GB   |    Зарегистрирован:  1 год 5 месяцев   |    Скачан:  0 раз

Полного источника не было: Никогда

 
   
 
 
 
Автор Сообщение

torrentc.info

Создавать темы 14-Фев-2017 13:49

[Цитировать]

Грязные парни / Плохие парни / Bad Boys
«Лучшие друзья. Отличные полицейские. Преступность обречена»
Страна: США
Жанр: Комедийный боевик
Год выпуска: 1995
Продолжительность: 01:54:57
Перевод: Одноголосый закадровый "Младокашкин"
Cубтитры: нет
Режиссер: Майкл Бэй / Michael Bay
В ролях: Уилл Смит, Мартин Лоуренс, Теа Леони, Чеки Карио, Джо Пантольяно, Марг Хельгенбергер, Нестор Серрано, Хулио Оскар Мечосо, Тереза Рэндл, Саверио Гуэрра
Описание: Из полиции похищены конфискованные наркотики на сумму более 100 миллионов долларов. Двое чернокожих детективов Майк и Лэрри (Лоуренс и Смит), прекрасно знающие науку выживания на "грязных улицах", получают это дело под личную ответственнсть. А лихую операцию провернула банда во главе с безжалостным и хладнокровным убийцей Чеки Карио ("Никита" Люка Бессона, "Нострадамус"). Один из недисциплинированных членов банды, обеспечивший поддержку внутри полиции, сразу же начал употреблять героин и вызвал двух колл-герлз, рассчитывая повеселиться. И вот, когда одна из девушек вышла в туалет, появился Чеки со своими ребятами. Одну из девушек, красивую мулатку Макси, он застрелил сразу же, потом был убит любитель повеселиться, а второй девчонке Джули удалось убежать. За этой единственной сведетельницей и начинается охота. Наши герои сумели найти Джули раньше, чем бандиты, но чем и как все это закончится, я думаю, вам будет интересно узнать самим. Стрельба, драки, погони, трюки, крепкий сюжет, местам уместный юмор (Смит явно работает под Ричарда Прайора). Выше среднего уровня боевик с элементами комедии, имеющий право на звание "суперхит", столь щедро раздаваемое нашими флибустьерами. (Иванов М.)
Доп. информация: Оцифровка VHS (личный архив) и получение VHSRip alenavova
Эксклюзив для torrentc. При размещении данного релиза на других сайтах ссылка на автора
Релиз
Сэмпл: https://yadi.sk/i/fN06qbmq3CJkYK
Качество видео: Workprint (???)
Формат видео: AVI
Видео: 704x384 (1.83:1), 25 fps, XviD build 73 ~1502 kbps avg, 0.22 bit/pixel
Аудио: 48 kHz, AC3 Dolby Digital, 2/0 (L,R) ch, ~192 kbps

MediaInfo

Грязные парни - Bad Boys [by alenavova].avi
Format : AVI
Format/Info : Audio Video Interleave
File size : 1.37 GiB
Duration : 1 h 54 min
Overall bit rate : 1 705 kb/s
Movie name : Грязные парни - Bad Boys [by alenavova]
Director : by alenavova
Writing application : VirtualDubMod 1.5.10.3 | www.virtualdub-fr.org || (build 2550/release)
Copyright : Edich2
Comment : torrentc
Video
ID : 0
Format : MPEG-4 Visual
Format profile : Advanced Simple@L5
Format settings, BVOP : 1
Format settings, QPel : No
Format settings, GMC : No warppoints
Format settings, Matrix : Custom
Codec ID : XVID
Codec ID/Hint : XviD
Duration : 1 h 54 min
Bit rate : 1 503 kb/s
Width : 704 pixels
Height : 384 pixels
Display aspect ratio : 1.85:1
Frame rate : 25.000 FPS
Color space : YUV
Chroma subsampling : 4:2:0
Bit depth : 8 bits
Scan type : Progressive
Compression mode : Lossy
Bits/(Pixel*Frame) : 0.222
Stream size : 1.21 GiB (88%)
Writing library : XviD 73
Audio
ID : 1
Format : AC-3
Format/Info : Audio Coding 3
Mode extension : CM (complete main)
Format settings, Endianness : Big
Codec ID : 2000
Duration : 1 h 54 min
Bit rate mode : Constant
Bit rate : 192 kb/s
Channel(s) : 2 channels
Channel positions : Front: L R
Sampling rate : 48.0 kHz
Frame rate : 31.250 FPS (1536 spf)
Compression mode : Lossy
Stream size : 158 MiB (11%)
Alignment : Split accross interleaves
Interleave, duration : 40 ms (1.00 video frame)
Interleave, preload duratio : 500 ms

Скриншоты




[torrentc.info]_torrent-5350783.torrent
Торрент: Зарегистрирован ·  [ 2017-02-14 13:48 ] ·  91994c0eded440ef46da2e1237a905c2863c6b55

14 KB

Статус: проверено
Скачан: 0 раз
Размер: 1.37 GB
Оценка: 
(Голосов: 0)
Сказали спасибо: 0  Спасибо
Похожие темы
[Профиль]    [ЛС]
Показать сообщения:    
Ответить на тему

Текущее время: Сегодня 00:31

Часовой пояс: GMT + 7



Вы не можете начинать темы
Вы не можете отвечать на сообщения
Вы не можете редактировать свои сообщения
Вы не можете удалять свои сообщения
Вы не можете голосовать в опросах
Вы не можете прикреплять файлы к сообщениям
Вы можете скачивать файлы