Жизнь прекрасна / La vita è bella / Life Is Beautiful (Роберто Бениньи / Roberto Benigni) [1997, Италия, Драма, мелодрама, комедия, военный, BDRip-AVC] [Original Version] VO (Белов) + Original Ita + AVO (Санаев)

Ответить на тему
Статистика раздачи [Обновить пиров]
Размер:  4.27 GB   |    Зарегистрирован:  1 год 9 месяцев   |    Скачан:  0 раз

Полного источника не было: Никогда

 
   
 
 
 
Автор Сообщение

torrentc.info

Создавать темы 14-Фев-2017 13:49

[Цитировать]

Жизнь прекрасна / La vita è bella / Life Is Beautiful
«An unforgettable fable that proves love, family and imagination conquer all» Страна: Италия
Жанр: Драма, мелодрама, комедия, военный
Год выпуска: 1997
Продолжительность: 02:04:46 (Original Version)
Перевод 1: Одноголосый (закадровый) Вадим Белов
Перевод 2: Авторский (одноголосый закадровый) Павел Санаев со вставками Вадима Белова (Одельно на Яндекс.Диск)
Оригинальная аудиодорожка: Итальянский
Cубтитры: Нет--Режиссер: Роберто Бениньи / Roberto Benigni--В ролях: Роберто Бениньи, Николетта Браски, Джорджио Кантарини, Джустино Дурано, Серджио Бини Бустрик, Мариса Паредес, Хорст Буххольц, Лидия Альфонси, Джулиана Лоджодиче, Америго Фонтани--Описание: Во время II Мировой войны в Италии в концлагерь были отправлены евреи, отец и его маленький сын.
Жена, итальянка, добровольно последовала вслед за ними.
В лагере отец сказал сыну, что все происходящее вокруг является очень большой игрой за приз в настоящий танк, который достанется тому мальчику, который сможет не попасться на глаза надзирателям.
Он сделал все, чтобы сын поверил в игру и остался жив, прячась в бараке...--Доп. информация: КиноПоиск (8.693 Топ250: 10) | IMDB (8.6 Top 250 #26) | Sample | --Качество видео: [url=viewtopic.php?t=5232868]BDRip-AVC[/url]
Формат видео: MKV
Видео: MPEG4/ISO/AVC, 1112x600 (1.85:1), 4000 Kbps, 23.976 fps, 0.250 bit/pixel.
Аудио 1: AC3 Dolby Digital, 3/2 (L,C,R,l,r) + LFE ch, 48.0 KHz, 448 Kbps. | VO. Вадим Белов
Аудио 2: AC3 Dolby Digital, 3/2 (L,C,R,l,r) + LFE ch, 48.0 KHz, 448 Kbps. | Original
Аудио 3: AC3 Dolby Digital, 3/2 (L,C,R,l,r) + LFE ch, 48.0 KHz, 448 Kbps. | AVO. Павел Санаев со вставками Вадима Белова (Одельно на Яндекс.Диск)

Награды:

Оскар, 1999 год
Победитель: Лучшая мужская роль (Роберто Бениньи), Лучший саундтрек к драматическому фильму, Лучший фильм на иностранном языке — «Италия»
Номинации: Лучший фильм, Лучший режиссер (Роберто Бениньи), Лучший сценарий, Лучший монтаж
Британская академия, 1999 год
Победитель: Лучшая мужская роль (Роберто Бениньи)
Номинации: Лучший фильм на иностранном языке, Лучший оригинальный сценарий
Европейская киноакадемия, 1998 год
Победитель: Лучший фильм,Лучшая мужская роль (Роберто Бениньи)
Каннский кинофестиваль, 1998 год
Победитель: Большой приз жюри
Номинации: Золотая пальмовая ветвь
Сезар, 1999 год
Победитель: Лучший фильм на иностранном языке
Гойя, 2000 год
Победитель: Лучший европейский фильм — «Италия»

Скриншоты

Запасные скриншоты

MediaInfo / x264x264

raw [info]: 1112x600p 1:1 @ 24000/1001 fps (cfr)
x264 [info]: using SAR=1/1
x264 [info]: using cpu capabilities: MMX2 SSE2Fast SSSE3 SSE4.2 AVX
x264 [info]: profile High, level 4.1
x264 [info]: frame I:1405 Avg QP:18.82 size: 88299
x264 [info]: frame P:33164 Avg QP:20.44 size: 37093
x264 [info]: frame B:144918 Avg QP:22.59 size: 16476
x264 [info]: consecutive B-frames: 1.1% 0.5% 3.0% 16.6% 16.2% 43.2% 7.5% 3.7% 2.4% 2.2% 1.7% 1.2% 0.7%
x264 [info]: mb I I16..4: 4.1% 79.9% 16.1%
x264 [info]: mb P I16..4: 0.4% 15.5% 1.6% P16..4: 34.8% 24.9% 16.6% 0.0% 0.0% skip: 6.1%
x264 [info]: mb B I16..4: 0.0% 2.0% 0.2% B16..8: 37.5% 14.7% 4.7% direct: 9.1% skip:31.9% L0:46.6% L1:36.1% BI:17.3%
x264 [info]: 8x8 transform intra:88.1% inter:60.0%
x264 [info]: coded y,uvDC,uvAC intra: 92.0% 91.4% 79.1% inter: 36.2% 29.4% 10.5%
x264 [info]: i16 v,h,dc,p: 50% 12% 14% 24%
x264 [info]: i8 v,h,dc,ddl,ddr,vr,hd,vl,hu: 17% 10% 11% 8% 11% 12% 10% 11% 11%
x264 [info]: i4 v,h,dc,ddl,ddr,vr,hd,vl,hu: 17% 8% 4% 8% 14% 15% 11% 11% 10%
x264 [info]: i8c dc,h,v,p: 52% 15% 17% 15%
x264 [info]: Weighted P-Frames: Y:7.8% UV:2.0%
x264 [info]: ref P L0: 36.7% 11.7% 19.2% 6.8% 6.9% 4.5% 4.8% 2.3% 2.6% 1.9% 2.3% 0.2% 0.0%
x264 [info]: ref B L0: 62.9% 13.6% 7.6% 4.4% 3.3% 2.9% 2.4% 1.6% 1.0% 0.4%
x264 [info]: ref B L1: 92.2% 7.8%
x264 [info]: kb/s:3998.74
General
Unique ID : 253071339511347935538614826329699926998 (0xBE63C45F8F04054E95152FFD09DA43D6)
Complete name : Жизнь прекрасна (1997).mkv
Format : Matroska
Format version : Version 4 / Version 2
File size : 4.27 GiB
Duration : 2 h 4 min
Overall bit rate : 4 897 kb/s
Movie name : Жизнь прекрасна / La vita è bella / Life Is Beautiful (1997) Original Version
Encoded date : UTC 2017-02-01 21:36:58
Writing application : mkvmerge v8.1.0 ('Psychedelic Postcard') 64bit
Writing library : libebml v1.3.1 + libmatroska v1.4.2
Cover : Yes
Attachments : cover.jpg
Video
ID : 1
Format : AVC
Format/Info : Advanced Video Codec
Format profile : High@L4.1
Format settings, CABAC : Yes
Format settings, ReFrames : 11 frames
Codec ID : V_MPEG4/ISO/AVC
Duration : 2 h 4 min
Bit rate : 3 999 kb/s
Width : 1 112 pixels
Height : 600 pixels
Display aspect ratio : 1.85:1
Frame rate mode : Constant
Frame rate : 23.976 (24000/1001) FPS
Color space : YUV
Chroma subsampling : 4:2:0
Bit depth : 8 bits
Scan type : Progressive
Bits/(Pixel*Frame) : 0.250
Stream size : 3.48 GiB (82%)
Title : La vita è bella (1997) By optik.1557
Writing library : x264 core 148 r2744kMod b97ae06
Encoding settings : cabac=1 / ref=11 / deblock=1:-3:-3 / analyse=0x3:0x113 / me=umh / subme=10 / psy=1 / fade_compensate=0.00 / psy_rd=1.01:0.20 / mixed_ref=1 / me_range=32 / chroma_me=1 / trellis=2 / 8x8dct=1 / cqm=0 / deadzone=21,11 / fast_pskip=0 / chroma_qp_offset=-3 / threads=6 / lookahead_threads=1 / sliced_threads=0 / nr=0 / decimate=1 / interlaced=0 / bluray_compat=0 / constrained_intra=0 / bframes=12 / b_pyramid=2 / b_adapt=2 / b_bias=0 / direct=1 / weightb=1 / open_gop=0 / weightp=2 / keyint=250 / keyint_min=23 / scenecut=40 / intra_refresh=0 / rc_lookahead=60 / rc=crf / mbtree=0 / crf=18.4000 / qcomp=0.60 / qpmin=0 / qpmax=69 / qpstep=4 / vbv_maxrate=50000 / vbv_bufsize=62500 / crf_max=0.0 / nal_hrd=none / filler=0 / ip_ratio=1.40 / pb_ratio=1.30 / aq=2:0.90
Language : Italian
Default : Yes
Forced : No
Color range : Limited
Color primaries : BT.709
Transfer characteristics : BT.709
Matrix coefficients : BT.709
Audio #1
ID : 2
Format : AC-3
Format/Info : Audio Coding 3
Mode extension : CM (complete main)
Format settings, Endianness : Big
Codec ID : A_AC3
Duration : 2 h 4 min
Bit rate mode : Constant
Bit rate : 448 kb/s
Channel(s) : 6 channels
Channel positions : Front: L C R, Side: L R, LFE
Sampling rate : 48.0 kHz
Frame rate : 31.250 FPS (1536 spf)
Bit depth : 16 bits
Compression mode : Lossy
Stream size : 400 MiB (9%)
Title : VO. Вадим Белов
Language : Russian
Default : Yes
Forced : No
Audio #2
ID : 3
Format : AC-3
Format/Info : Audio Coding 3
Mode extension : CM (complete main)
Format settings, Endianness : Big
Codec ID : A_AC3
Duration : 2 h 4 min
Bit rate mode : Constant
Bit rate : 448 kb/s
Channel(s) : 6 channels
Channel positions : Front: L C R, Side: L R, LFE
Sampling rate : 48.0 kHz
Frame rate : 31.250 FPS (1536 spf)
Bit depth : 16 bits
Compression mode : Lossy
Stream size : 400 MiB (9%)
Title : Original
Language : Italian
Default : No
Forced : No
Menu
00:00:00.000 : en:Chapter 1
00:11:02.495 : en:Chapter 2
00:24:18.915 : en:Chapter 3
00:34:36.239 : en:Chapter 4
00:41:12.636 : en:Chapter 5
00:57:32.115 : en:Chapter 6
01:05:55.701 : en:Chapter 7
01:14:39.850 : en:Chapter 8
01:25:31.667 : en:Chapter 9
01:36:18.731 : en:Chapter 10
01:48:34.424 : en:Chapter 11
01:58:39.487 : en:Chapter 12


[torrentc.info]_torrent-5349149.torrent
Торрент: Зарегистрирован ·  [ 2017-02-14 13:48 ] ·  bc8205e91899c56bbbc83d4ca3ef491f3dc00ca3

11 KB

Статус: проверено
Скачан: 0 раз
Размер: 4.27 GB
Оценка: 
(Голосов: 0)
Сказали спасибо: 0  Спасибо
Похожие темы
[Профиль]    [ЛС]
Показать сообщения:    
Ответить на тему

Текущее время: Сегодня 07:18

Часовой пояс: GMT + 7



Вы не можете начинать темы
Вы не можете отвечать на сообщения
Вы не можете редактировать свои сообщения
Вы не можете удалять свои сообщения
Вы не можете голосовать в опросах
Вы не можете прикреплять файлы к сообщениям
Вы можете скачивать файлы