Паршивая овца / Позор семьи / Black Sheep (Пенелопа Сфирис / Penelope Spheeris) [1996, США, Комедия, VHSRip] [Full Screen] AVO (Павел Санаев)

Ответить на тему
Статистика раздачи [Обновить пиров]
Размер:  1.37 GB   |    Зарегистрирован:  1 год 9 месяцев   |    Скачан:  0 раз

Полного источника не было: Никогда

 
   
 
 
 
Автор Сообщение

torrentc.info

Создавать темы 14-Фев-2017 13:49

[Цитировать]

Паршивая овца / Позор семьи / Black Sheep

«There's one in every family»

[Full Screen]
Страна: США
Жанр: Комедия
Год выпуска: 1996
Продолжительность: 01:23:12
Перевод: Авторский (одноголосый закадровый) Павел Санаев
Cубтитры: нет
Режиссер: Пенелопа Сфирис / Penelope Spheeris
В ролях: Крис Фарли / Chris Farley, Дэвид Спэйд / David Spade, Тим Матисон / Tim Matheson, Кристина Эберсоул / Christine Ebersole, Грант Хеслов / Grant Heslov, Тимоти Кархарт / Timothy Carhart, Брюс МакГилл / Bruce McGill, Бойд Бэнкс / Boyd Banks, Майкл Пэтрик Картер / Michael Patrick Carter, Гэри Бьюзи / Gary Busey
Описание: Эл Доннели обладает всеми качествами, необходимыми для того, чтобы сделать карьеру в большой политике. Он прекрасный оратор, легко зажигающий аудиторию. Эл хорош собой и быстро завоевывает расположение окружающих. Вполне вероятно, что в борьбе за губернаторское кресло Элу Доннели не будет равных. Но что гложет этого блестящего кандидата, что подрывает его уверенность в себе?
Есть в безупречной репутации Эла Доннели одно слабое звено - это его чокнутый брат Майкл. Эл Доннели находит надежный способ обезвредить паршивую овцу. Он приставляет к невменяемому Майклу человека из своей команды, Стива Доддса, и приказывает ему не сводить глаз с трудного брата. Теперь, когда ахиллесова пята надежно скрыта, Эл Доннели вновь обретает уверенность в себе. Его оппонентам не к чему придраться; но вот Стиву Доддсу не повезло…
Доп. информация: За оцифровку VHS спасибо Воронеж-1
Релиз
Сэмпл: https://yadi.sk/i/XjBfKGsU3CRcbF
Качество видео: VHSRip
Формат видео: AVI
Видео: 704x528 (1.33:1), 25 fps, XviD build 73 ~2148 kbps avg, 0.23 bit/pixel
Аудио: 48 kHz, AC3 Dolby Digital, 2/0 (L,R) ch, ~192 kbps

MediaInfo

Позор семьи - Black Sheep [by Edich2].avi
Format : AVI
Format/Info : Audio Video Interleave
File size : 1.37 GiB
Duration : 1 h 23 min
Overall bit rate : 2 350 kb/s
Movie name : Позор семьи - Black Sheep [by Edich2]
Director : by Edich2
Writing application : VirtualDubMod 1.5.10.3 | www.virtualdub-fr.org || (build 2550/release)
Comment : torrentc
Video
ID : 0
Format : MPEG-4 Visual
Format profile : Advanced Simple@L5
Format settings, BVOP : 1
Format settings, QPel : No
Format settings, GMC : No warppoints
Format settings, Matrix : Custom
Codec ID : XVID
Codec ID/Hint : XviD
Duration : 1 h 23 min
Bit rate : 2 148 kb/s
Width : 704 pixels
Height : 528 pixels
Display aspect ratio : 4:3
Frame rate : 25.000 FPS
Color space : YUV
Chroma subsampling : 4:2:0
Bit depth : 8 bits
Scan type : Progressive
Compression mode : Lossy
Bits/(Pixel*Frame) : 0.231
Stream size : 1.25 GiB (91%)
Writing library : XviD 73
Audio
ID : 1
Format : AC-3
Format/Info : Audio Coding 3
Mode extension : CM (complete main)
Format settings, Endianness : Big
Codec ID : 2000
Duration : 1 h 23 min
Bit rate mode : Constant
Bit rate : 192 kb/s
Channel(s) : 2 channels
Channel positions : Front: L R
Sampling rate : 48.0 kHz
Frame rate : 31.250 FPS (1536 spf)
Compression mode : Lossy
Stream size : 114 MiB (8%)
Alignment : Split accross interleaves
Interleave, duration : 40 ms (1.00 video frame)
Interleave, preload duratio : 500 ms

Скриншоты




[torrentc.info]_torrent-5351009.torrent
Торрент: Зарегистрирован ·  [ 2017-02-14 13:48 ] ·  c0054b80ca6a3aa81f49451c59196a88c938f089

14 KB

Статус: проверено
Скачан: 0 раз
Размер: 1.37 GB
Оценка: 
(Голосов: 0)
Сказали спасибо: 0  Спасибо
Похожие темы
[Профиль]    [ЛС]
Показать сообщения:    
Ответить на тему

Текущее время: Сегодня 02:55

Часовой пояс: GMT + 7



Вы не можете начинать темы
Вы не можете отвечать на сообщения
Вы не можете редактировать свои сообщения
Вы не можете удалять свои сообщения
Вы не можете голосовать в опросах
Вы не можете прикреплять файлы к сообщениям
Вы можете скачивать файлы