Пока ты спал / While You Were Sleeping (Джон Тёртелтауб / Jon Turteltaub) [1995, США, романтическая комедия, VHSRip] [Full Screen] AVO (Павел Санаев)

Ответить на тему
Статистика раздачи [Обновить пиров]
Размер:  1.37 GB   |    Зарегистрирован:  1 год 7 месяцев   |    Скачан:  0 раз

Полного источника не было: Никогда

 
   
 
 
 
Автор Сообщение

torrentc.info

Создавать темы 14-Фев-2017 13:49

[Цитировать]

Пока ты спал / While You Were Sleeping
[Full Screen]
«Любовь - прекрасный сон, когда так не хочется просыпаться»
Страна: США
Жанр: романтическая комедия
Год выпуска: 1995
Продолжительность: 01:40:09
Перевод: Авторский (одноголосый закадровый) Павел Санаев
Cубтитры: нет
Режиссер: Джон Тёртелтауб / Jon Turteltaub
В ролях: Сандра Буллок, Билл Пуллман, Питер Галлахер, Питер Бойл, Джек Уорден, Глинис Джонс, Миколе Миркурио, Джейсон Бернард, Майкл Рисполи, Элли Уокер.
Описание: Сандра Буллок работает в метро - продает жетоны. Она влюбилась в Питера Гэллагера, который каждый день покупает их у нее, и надеется, что в один прекрасный день она сможет познакомиться с ним. И вот этот день настал, хотя сложилось все не совсем так, как она ожидала. На него напали грабители, он упал на рельсы, и она спасла ему жизнь. В больнице, пока любимый был в коме, она познакомилась со всей его семьей, и получилось так, что все сочли ее его невестой. Разубедить будущих "родственников" ей шанса не предоставилось и пришлось играть эту роль. Но в коме пострадавший явно залежался. В Сандру влюбился брат больного Билл Пуллмэн, и с каждым днем ее любовь к Питеру все больше переходила на Билла. Чем разрешилась столь сложная ситуация, вы узнаете, посмотрев эту очень добрую и смешную комедию. Композитор Рэнди Эделман написал чудесную музыку. (Иванов М.)
Доп. информация: Спасибо RoxMarty оцифровка VHS и предоставление для релиза
Релиз
Сэмпл: https://yadi.sk/i/nDUUqhxf3CfgG6
Качество видео: VHSRip
Формат видео: AVI
Видео: 704x544 (1.29:1), 25 fps, XviD build 73 ~1750 kbps avg, 0.18 bit/pixel
Аудио: 48 kHz, AC3 Dolby Digital, 2/0 (L,R) ch, ~192 kbps

MediaInfo

Пока ты спал (While you were sleeping) [by Edich2].avi
Format : AVI
Format/Info : Audio Video Interleave
File size : 1.37 GiB
Duration : 1 h 40 min
Overall bit rate : 1 952 kb/s
Movie name : Пока ты спал (While you were sleeping) [by Edich2]
Director : by Edich2
Writing application : VirtualDubMod 1.5.10.3 | www.virtualdub-fr.org || (build 2550/release)
Copyright : RoxMarty
Comment : torrentc
Video
ID : 0
Format : MPEG-4 Visual
Format profile : Advanced Simple@L5
Format settings, BVOP : 1
Format settings, QPel : No
Format settings, GMC : No warppoints
Format settings, Matrix : Custom
Codec ID : XVID
Codec ID/Hint : XviD
Duration : 1 h 40 min
Bit rate : 1 750 kb/s
Width : 704 pixels
Height : 544 pixels
Display aspect ratio : 1.294
Frame rate : 25.000 FPS
Color space : YUV
Chroma subsampling : 4:2:0
Bit depth : 8 bits
Scan type : Progressive
Compression mode : Lossy
Bits/(Pixel*Frame) : 0.183
Stream size : 1.22 GiB (90%)
Writing library : XviD 73
Audio
ID : 1
Format : AC-3
Format/Info : Audio Coding 3
Mode extension : CM (complete main)
Format settings, Endianness : Big
Codec ID : 2000
Duration : 1 h 40 min
Bit rate mode : Constant
Bit rate : 192 kb/s
Channel(s) : 2 channels
Channel positions : Front: L R
Sampling rate : 48.0 kHz
Frame rate : 31.250 FPS (1536 spf)
Compression mode : Lossy
Stream size : 138 MiB (10%)
Alignment : Split accross interleaves
Interleave, duration : 40 ms (1.00 video frame)
Interleave, preload duratio : 500 ms

Скриншоты




[torrentc.info]_torrent-5351712.torrent
Торрент: Зарегистрирован ·  [ 2017-02-14 13:48 ] ·  6e7c2201660b2f7ddb240462660a68c7cdbe47e0

14 KB

Статус: проверено
Скачан: 0 раз
Размер: 1.37 GB
Оценка: 
(Голосов: 0)
Сказали спасибо: 0  Спасибо
Похожие темы
[Профиль]    [ЛС]
Показать сообщения:    
Ответить на тему

Текущее время: Сегодня 13:53

Часовой пояс: GMT + 7



Вы не можете начинать темы
Вы не можете отвечать на сообщения
Вы не можете редактировать свои сообщения
Вы не можете удалять свои сообщения
Вы не можете голосовать в опросах
Вы не можете прикреплять файлы к сообщениям
Вы можете скачивать файлы