Пункт назначения / Final Destination (Джеймс Вонг / James Wong) [2000, США, Канада, Германия, ужасы, триллер, HDRip-AVC] Dub + 2хMVO + 2хAVO + Original Eng + Sub (Rus, Eng)

Ответить на тему
Статистика раздачи [Обновить пиров]
Размер:  3.66 GB   |    Зарегистрирован:  1 год 9 месяцев   |    Скачан:  0 раз

Полного источника не было: Никогда

 
   
 
 
 
Автор Сообщение

torrentc.info

Создавать темы 14-Фев-2017 13:49

[Цитировать]

Пункт назначения / Final Destination- Страна: США, Канада, Германия
Жанр: ужасы, триллер
Год выпуска: 2000
Продолжительность: 01:38:02
Перевод 1: Профессиональный (дублированный)
Перевод 2: Профессиональный (многоголосый закадровый) Киномания
Перевод 3: Профессиональный (многоголосый закадровый) Рен ТВ
Перевод 4: Авторский (одноголосый закадровый) А. Гаврилов
Перевод 5: Авторский (одноголосый закадровый) С. Визгунов
Cубтитры: русские, английские
Оригинальная аудиодорожка: английский
Режиссер: Джеймс Вонг / James Wong
В ролях: Девон Сава, Эли Лартер, Керр Смит, Кристен Клоук, Дэниэл Робак, Роджер Гуэнвёр Смит, Чэд Донелла, Шонн Уильям Скотт, Тони Тодд, Аманда Детмер
Описание: Алекс летит развлекаться со всем классом в Париж на 10 дней. Отец говорит, что детство кончилось. В аэропорту он узнает, что время вылета совпадает с его днем рождения. Потом, повинуясь плохому предчувствию, Алекс покидает самолет вместе с еще семью людьми. И тут взрывается их самолет…
Но позже оставшиеся в живых пассажиры гибнут один за другим, и Алекс понимает: смерть не обманешь — это только отсрочка…
Сэмпл: http://sendfile.su/1305283
[img]https://rating.kinopoisk.ru/668.gif[/img]
Качество видео: HDRip-AVC ([url=viewtopic.php?t=4905071]Пункт назначения 2000 BDRip 1080p[/url])
Формат видео: MKV
Видео: x264, 1152x648 (16:9) 23,976 fps, ~2975 kbps, 0,166 bit/pixel
Аудио 1: 48 kHz, AC3 Dolby Digital, 3/2 (L,C,R,l,r) + LFE ch, ~448 kbps | Дубляж, Blu-ray CEE
Аудио 2: 48 kHz, AC3 Dolby Digital, 3/2 (L,C,R,l,r) + LFE ch, ~384 kbps | Киномания
Аудио 3: 48 kHz, AC3 Dolby Digital, 3/2 (L,C,R,l,r) + LFE ch, ~448 kbps | Английский
---------------------------------------отдельно---------------------------------------------------
Аудио 4: 48 kHz, AC3 Dolby Digital, 2/0 (L,R), ~192 kbps | РЕН ТВ
Аудио 5: 48 kHz, AC3 Dolby Digital, 3/2 (L,C,R,l,r) + LFE ch, ~448 kbps | Гаврилов
Аудио 6: 48 kHz, AC3 Dolby Digital, 3/2 (L,C,R,l,r) + LFE ch, ~448 kbps | Визгунов
Формат субтитров: softsub (SRT)

MediaInfo

General
Unique ID : 175089148496061125224507336063138256594 (0x83B8F182D4E7DDA7BAE75ABE29B9D6D2)
Format : Matroska
Format version : Version 4 / Version 2
File size : 2.91 GiB
Duration : 1h 38mn
Overall bit rate : 4 256 Kbps
Encoded date : UTC 2017-02-02 11:32:01
Writing application : mkvmerge v9.8.0 ('Kuglblids') 64bit
Writing library : libebml v1.3.4 + libmatroska v1.4.5
Cover : Yes
Attachments : cover.jpg / xlog.txt
Video #1
ID : 1
Format : AVC
Format/Info : Advanced Video Codec
Format profile : High@L4.1
Format settings, CABAC : Yes
Format settings, ReFrames : 10 frames
Codec ID : V_MPEG4/ISO/AVC
Duration : 1h 38mn
Bit rate : 2 975 Kbps
Width : 1 152 pixels
Height : 648 pixels
Display aspect ratio : 16:9
Frame rate mode : Constant
Frame rate : 23.976 (24000/1001) fps
Color space : YUV
Chroma subsampling : 4:2:0
Bit depth : 8 bits
Scan type : Progressive
Bits/(Pixel*Frame) : 0.166
Stream size : 2.04 GiB (70%)
Writing library : x264 core 146 r2538 121396c
Encoding settings : cabac=1 / ref=10 / deblock=1:-3:-2 / analyse=0x3:0x113 / me=umh / subme=10 / psy=1 / psy_rd=1.00:0.00 / mixed_ref=1 / me_range=32 / chroma_me=1 / trellis=2 / 8x8dct=1 / cqm=0 / deadzone=21,11 / fast_pskip=1 / chroma_qp_offset=-2 / threads=6 / lookahead_threads=1 / sliced_threads=0 / nr=0 / decimate=1 / interlaced=0 / bluray_compat=0 / constrained_intra=0 / bframes=12 / b_pyramid=2 / b_adapt=2 / b_bias=0 / direct=1 / weightb=1 / open_gop=0 / weightp=2 / keyint=250 / keyint_min=23 / scenecut=40 / intra_refresh=0 / rc_lookahead=50 / rc=2pass / mbtree=1 / bitrate=2975 / ratetol=1.0 / qcomp=0.60 / qpmin=0 / qpmax=69 / qpstep=4 / cplxblur=20.0 / qblur=0.5 / ip_ratio=1.40 / aq=3:1.00
Language : English
Default : Yes
Forced : No
Audio #2
ID : 2
Format : AC-3
Format/Info : Audio Coding 3
Mode extension : CM (complete main)
Format settings, Endianness : Big
Codec ID : A_AC3
Duration : 1h 38mn
Bit rate mode : Constant
Bit rate : 448 Kbps
Channel(s) : 6 channels
Channel positions : Front: L C R, Side: L R, LFE
Sampling rate : 48.0 KHz
Frame rate : 31.250 fps (1536 spf)
Compression mode : Lossy
Stream size : 314 MiB (11%)
Title : Dub
Language : Russian
Default : Yes
Forced : No
Audio #3
ID : 3
Format : AC-3
Format/Info : Audio Coding 3
Mode extension : CM (complete main)
Format settings, Endianness : Big
Codec ID : A_AC3
Duration : 1h 38mn
Bit rate mode : Constant
Bit rate : 384 Kbps
Channel(s) : 6 channels
Channel positions : Front: L C R, Side: L R, LFE
Sampling rate : 48.0 KHz
Frame rate : 31.250 fps (1536 spf)
Compression mode : Lossy
Stream size : 269 MiB (9%)
Title : Киномания
Language : Russian
Default : No
Forced : No
Audio #4
ID : 4
Format : AC-3
Format/Info : Audio Coding 3
Mode extension : CM (complete main)
Format settings, Endianness : Big
Codec ID : A_AC3
Duration : 1h 38mn
Bit rate mode : Constant
Bit rate : 448 Kbps
Channel(s) : 6 channels
Channel positions : Front: L C R, Side: L R, LFE
Sampling rate : 48.0 KHz
Frame rate : 31.250 fps (1536 spf)
Compression mode : Lossy
Stream size : 314 MiB (11%)
Language : English
Default : No
Forced : No
Text #5
ID : 5
Format : UTF-8
Codec ID : S_TEXT/UTF8
Codec ID/Info : UTF-8 Plain Text
Duration : 1h 31mn
Bit rate : 69 bps
Count of elements : 923
Stream size : 46.7 KiB (0%)
Title : Blu-ray CEE
Language : Russian
Default : No
Forced : No
Text #6
ID : 6
Format : UTF-8
Codec ID : S_TEXT/UTF8
Codec ID/Info : UTF-8 Plain Text
Duration : 1h 29mn
Bit rate : 75 bps
Count of elements : 902
Stream size : 49.2 KiB (0%)
Title : Киномания
Language : Russian
Default : No
Forced : No
Text #7
ID : 7
Format : UTF-8
Codec ID : S_TEXT/UTF8
Codec ID/Info : UTF-8 Plain Text
Duration : 1h 29mn
Bit rate : 49 bps
Count of elements : 892
Stream size : 32.2 KiB (0%)
Language : English
Default : No
Forced : No

лог

raw [info]: 1152x648p 1:1 @ 24000/1001 fps (cfr)
x264 [info]: using SAR=1/1
x264 [info]: using cpu capabilities: MMX2 SSE2Fast SSSE3 SSE4.2 AVX XOP FMA4 FMA3 LZCNT BMI1
x264 [info]: profile High, level 4.1
x264 [info]: frame I:998 Avg QP:15.70 size: 85444
x264 [info]: frame P:34465 Avg QP:19.20 size: 28652
x264 [info]: frame B:105563 Avg QP:21.81 size: 10549
x264 [info]: consecutive B-frames: 3.7% 4.9% 9.4% 24.3% 17.8% 28.8% 4.8% 4.1% 1.0% 0.6% 0.2% 0.2% 0.3%
x264 [info]: mb I I16..4: 7.5% 80.0% 12.6%
x264 [info]: mb P I16..4: 1.9% 13.1% 1.4% P16..4: 40.9% 21.0% 10.7% 0.0% 0.0% skip:10.9%
x264 [info]: mb B I16..4: 0.1% 1.3% 0.1% B16..8: 41.7% 9.7% 2.2% direct: 5.0% skip:39.9% L0:44.1% L1:47.4% BI: 8.5%
x264 [info]: 8x8 transform intra:81.2% inter:71.1%
x264 [info]: coded y,uvDC,uvAC intra: 82.1% 75.4% 43.6% inter: 23.4% 17.3% 1.5%
x264 [info]: i16 v,h,dc,p: 34% 15% 9% 42%
x264 [info]: i8 v,h,dc,ddl,ddr,vr,hd,vl,hu: 10% 7% 6% 11% 15% 14% 14% 12% 12%
x264 [info]: i4 v,h,dc,ddl,ddr,vr,hd,vl,hu: 10% 6% 4% 11% 17% 15% 14% 11% 12%
x264 [info]: i8c dc,h,v,p: 38% 26% 18% 17%
x264 [info]: Weighted P-Frames: Y:5.8% UV:3.9%
x264 [info]: ref P L0: 45.2% 9.2% 18.9% 6.9% 5.7% 4.0% 3.6% 2.1% 2.0% 1.8% 0.5% 0.0%
x264 [info]: ref B L0: 73.1% 12.3% 5.6% 2.9% 2.1% 1.7% 1.4% 0.6% 0.3%
x264 [info]: ref B L1: 92.7% 7.3%
x264 [info]: kb/s:2973.60
x264 [total]: encoded 141026 frames, 6.68 fps, 2973.60 kb/s

Скриншоты


Пункт назначения 2
Пункт назначения 3
Пункт назначения 4


[torrentc.info]_torrent-5351804.torrent
Торрент: Зарегистрирован ·  [ 2017-02-14 13:48 ] ·  3fcc0ddb2d8a1bc676d044e1db1b1190f90d30d2

19 KB

Статус: проверено
Скачан: 0 раз
Размер: 3.66 GB
Оценка: 
(Голосов: 0)
Сказали спасибо: 0  Спасибо
Похожие темы
[Профиль]    [ЛС]
Показать сообщения:    
Ответить на тему

Текущее время: Сегодня 07:16

Часовой пояс: GMT + 7



Вы не можете начинать темы
Вы не можете отвечать на сообщения
Вы не можете редактировать свои сообщения
Вы не можете удалять свои сообщения
Вы не можете голосовать в опросах
Вы не можете прикреплять файлы к сообщениям
Вы можете скачивать файлы