Бесконечная история 3 / The Neverending Story III (Питер МакДональд / Peter MacDonald) [1994, Германия, США, фэнтези, сказка, VHSRip-AVC] [Fullscreen] AVO (Сергей Визгунов)

Ответить на тему
Статистика раздачи [Обновить пиров]
Размер:  2.55 GB   |    Зарегистрирован:  1 год 7 месяцев   |    Скачан:  0 раз

Полного источника не было: Никогда

 
   
 
 
 
Автор Сообщение

torrentc.info

Создавать темы 14-Фев-2017 13:49

[Цитировать]

Бесконечная история 3 / The Neverending Story III / Fullscreen
Страна: Германия, США
Жанр: фэнтези, сказка
Год выпуска: 1994
Продолжительность: 01:26:53
Перевод: Авторский (одноголосый закадровый) Сергей Визгунов
Cубтитры: чьи-то
Оригинальная аудиодорожка: нет
Режиссер: Питер МакДональд / Peter MacDonald
В ролях: Джейсон Джеймс Рихтер, Мелоди Кэй, Джек Блэк, Кэрол Финн, Райан Боллман, Фредди Джонс, Джули Кокс, Мойя Брэди, Тони Робинсон и ещё много неизвестных и известных в узких кругах актёров.
Описание: Слип, главарь группы школьных задир, издевающихся над Бастианом (главным героем фильма), крадёт из школьной библиотеки волшебную книгу «Бесконечная история». Посредством книги он обретает власть над страной Фантазией. В итоге Фантазия превращается в царство злых фантазий испорченного мальчишки.
Повелительница Фантазии просит Бастиана отобрать у Слипа книгу. На помощь Бастиану из чудесного мира Фантазии в реальный мир посылаются несколько сказочных существ.
Доп. информация:
Оцифровка пиратской VHS из собственной коллекции.
В видео вшиты субтитры, чьи - без понятия.
Fullscreen.
Перевод Визгунова впервые в рунете.
Везде любительская одноголоска.
Сэмпл: http://sendfile.su/1306114
Качество видео: VHSRip-AVC
Формат видео: MP4
Видео: AVC, 720х578, 5:4, 50,000 кадров/сек, 4000 Кбит/сек
Аудио: AAC, 48,0 КГц, 192 Кбит/сек, 2 канала, Front: L R
Формат субтитров: hardsub (неотключаемые)

MediaInfo

Общее
Полное имя : K:\torrents\...The Neverending Story III. full. Визгунов\The Neverending Story III.mp4
Формат : MPEG-4
Профиль формата : Base Media
Идентификатор кодека : isom (isom)
Размер файла : 2,55 Гбайт
Продолжительность : 1 ч. 26 м.
Режим общего битрейта : Переменный
Общий поток : 4194 Кбит/сек
Дата кодирования : UTC 2017-02-05 16:42:47
Дата пометки : UTC 2017-02-05 16:42:47
Видео
Идентификатор : 2
Формат : AVC
Формат/Информация : Advanced Video Codec
Профиль формата : Baseline@L3
Параметр CABAC формата : Нет
Параметр ReFrames формата : 1 кадр
Параметр GOP формата : M=1, N=100
Идентификатор кодека : avc1
Идентификатор кодека/Информация : Advanced Video Coding
Продолжительность : 1 ч. 26 м.
Битрейт : 4000 Кбит/сек
Максимальный битрейт : 4516 Кбит/сек
Ширина : 720 пикселей
Высота : 576 пикселей
Соотношение сторон : 5:4
Режим частоты кадров : Постоянный
Частота кадров : 50,000 кадров/сек
Цветовое пространство : YUV
Субдискретизация насыщенности : 4:2:0
Битовая глубина : 8 бит
Тип развёртки : Прогрессивная
Бит/(Пиксели*Кадры) : 0.193
Размер потока : 2,43 Гбайт (95%)
Дата пометки : UTC 2017-02-05 16:45:43
Аудио
Идентификатор : 1
Формат : AAC
Формат/Информация : Advanced Audio Codec
Профиль формата : LC
Идентификатор кодека : 40
Продолжительность : 1 ч. 26 м.
Вид битрейта : Переменный
Битрейт : 192 Кбит/сек
Максимальный битрейт : 196 Кбит/сек
Каналы : 2 канала
Расположение каналов : Front: L R
Частота : 48,0 КГц
Частота кадров : 46,875 кадров/сек (1024 spf)
Метод сжатия : С потерями
Размер потока : 118 Мбайт (5%)
Default : Да
Alternate group : 1
Дата пометки : UTC 2017-02-05 16:45:43

Скриншот c названием фильма



[torrentc.info]_torrent-5353243.torrent
Торрент: Зарегистрирован ·  [ 2017-02-14 13:48 ] ·  43fd637be04d9bf7254a04386e5f5e201ec0ea5d

13 KB

Статус: проверено
Скачан: 0 раз
Размер: 2.55 GB
Оценка: 
(Голосов: 0)
Сказали спасибо: 0  Спасибо
Похожие темы
[Профиль]    [ЛС]
Показать сообщения:    
Ответить на тему

Текущее время: Сегодня 07:09

Часовой пояс: GMT + 7



Вы не можете начинать темы
Вы не можете отвечать на сообщения
Вы не можете редактировать свои сообщения
Вы не можете удалять свои сообщения
Вы не можете голосовать в опросах
Вы не можете прикреплять файлы к сообщениям
Вы можете скачивать файлы