Достойный удар / Бой на равных / Equal Impact (Джон Стивен Уорд / Jon Steven Ward) [1995, США, Боевик, WEB-DLRip] AVO (А. Кашкин) + Original Eng

Ответить на тему
Статистика раздачи [Обновить пиров]
Размер:  1.47 GB   |    Зарегистрирован:  1 год 5 месяцев   |    Скачан:  0 раз

Полного источника не было: Никогда

 
   
 
 
 
Автор Сообщение

torrentc.info

Создавать темы 14-Фев-2017 13:49

[Цитировать]

Достойный удар / Бой на равных / Equal Impact
Страна: США
Жанр: Боевик
Год выпуска: 1995
Продолжительность: 1:47:52
Перевод: Авторский (одноголосый закадровый) А. Кашкин (Первомайский)
Cубтитры: нет
Оригинальная аудиодорожка: английский
Режиссер: Джон Стивен Уорд / Jon Steven Ward
В ролях: Джей Гейтс, Джо Гейтс, Джо Эстевез, Роберт З'Дар, Никка Бэйли, Билл Джонс, Николетт Ваджтай, Крист Джерьен, Эдгар Бэйли, Рон Джарретт, Дэрил Смит
Описание: Жизнь двух братьев-каратистов сильно меняется после того, как один из них становится свидетелем преступления. Он уносит с места события большую сумму денег и тщательно скрывает это от брата, еще не зная о том, что обратного пути для него больше нет. Его после этого похищает мафия, а его брат начинает расследование...
Доп. информация: За звуковую дорожку А. Кашкина спасибо смерч11
Видеоряд найден в сети
Сэмпл: https://yadi.sk/i/tWr53yvP3DELoB
Качество видео: WEB-DLRip
Формат видео: AVI
Видео: XviD , 720x416 (1.73:1) ,30.000 fps , 1 554 Kbps
Аудио: AC3 , 48 kHz , 192.00 kbps avg , 2/0 (L,R) ch
Аудио 2: AC3 , 48 kHz , 192.00 kbps avg , 2/0 (L,R) ch

MediaInfo

Complete name Бой на равных 1995 (Kashkin).avi
Format : AVI
Format/Info : Audio Video Interleave
File size : 1.47 GiB
Duration : 1h 47mn
Overall bit rate : 1 955 Kbps
Writing application : VirtualDubMod 1.5.10.3 | www.virtualdub-fr.org || (build 2550/release)
Writing library : VirtualDubMod build 2550/release
Video
ID : 0
Format : MPEG-4 Visual
Format profile : Advanced Simple@L5
Format settings, BVOP : 1
Format settings, QPel : No
Format settings, GMC : No warppoints
Format settings, Matrix : Custom
Codec ID : XVID
Codec ID/Hint : XviD
Duration : 1h 47mn
Bit rate : 1 554 Kbps
Width : 720 pixels
Height : 416 pixels
Display aspect ratio : 1.731
Frame rate : 30.000 fps
Color space : YUV
Chroma subsampling : 4:2:0
Bit depth : 8 bits
Scan type : Progressive
Compression mode : Lossy
Bits/(Pixel*Frame) : 0.173
Stream size : 1.17 GiB (79%)
Writing library : XviD 73
Audio #1
ID : 1
Format : AC-3
Format/Info : Audio Coding 3
Mode extension : CM (complete main)
Format settings, Endianness : Big
Codec ID : 2000
Duration : 1h 47mn
Bit rate mode : Constant
Bit rate : 192 Kbps
Channel(s) : 2 channels
Channel positions : Front: L R
Sampling rate : 48.0 KHz
Frame rate : 31.250 fps (1536 spf)
Compression mode : Lossy
Stream size : 148 MiB (10%)
Alignment : Split accross interleaves
Interleave, duration : 33 ms (1.00 video frame)
Interleave, preload duratio : 500 ms
Audio #2
ID : 2
Format : AC-3
Format/Info : Audio Coding 3
Mode extension : CM (complete main)
Format settings, Endianness : Big
Codec ID : 2000
Duration : 1h 47mn
Bit rate mode : Constant
Bit rate : 192 Kbps
Channel(s) : 2 channels
Channel positions : Front: L R
Sampling rate : 48.0 KHz
Frame rate : 31.250 fps (1536 spf)
Compression mode : Lossy
Stream size : 148 MiB (10%)
Alignment : Split accross interleaves
Interleave, duration : 33 ms (1.00 video frame)
Interleave, preload duratio : 500 ms

Скриншоты



[torrentc.info]_torrent-5353504.torrent
Торрент: Зарегистрирован ·  [ 2017-02-14 13:48 ] ·  601467356b6fa04fb052c37a70b01adccc46f3c3

15 KB

Статус: проверено
Скачан: 0 раз
Размер: 1.47 GB
Оценка: 
(Голосов: 0)
Сказали спасибо: 0  Спасибо
Похожие темы
[Профиль]    [ЛС]
Показать сообщения:    
Ответить на тему

Текущее время: Сегодня 00:37

Часовой пояс: GMT + 7



Вы не можете начинать темы
Вы не можете отвечать на сообщения
Вы не можете редактировать свои сообщения
Вы не можете удалять свои сообщения
Вы не можете голосовать в опросах
Вы не можете прикреплять файлы к сообщениям
Вы можете скачивать файлы