Фулконтакт / Полный контакт / Full contact (Рик Джейкобсон / Rick Jacobson) [1992, США, боевые искусства, DVDRip] AVO (Леонид Володарский) + AVO (Василий Горчаков)

Ответить на тему
Статистика раздачи [Обновить пиров]
Размер:  1.34 GB   |    Зарегистрирован:  1 год 7 месяцев   |    Скачан:  0 раз

Полного источника не было: Никогда

 
   
 
 
 
Автор Сообщение

torrentc.info

Создавать темы 14-Фев-2017 13:48

[Цитировать]

Фулконтакт / Полный контакт / Full contact
"Один на один с преступным миром"
Страна: США
Жанр: боевые искусства
Год выпуска: 1992
Продолжительность: 01:32:51
Перевод: Авторский (одноголосый закадровый) Леонид Володарский
Перевод 2: Авторский (одноголосый авторский) – Василий Горчаков
Cубтитры: нет
Режиссер: Рик Джейкобсон / Rick Jacobson
В ролях: Джерри Тримбл /Jerry Trimble/, Хауард Джексон /Howard Jackson/, Элвин Праудер, Джерри Блэнк, Дениз Бьюик, Маркус Аурелиус /Marcus Aurelius/, Рэймонд Сторти
Описание: Первые четыре актера этого фильма - настоящие чемпионы по кикбоксингу в различных весовых категориях. Сюжет и актерская игра не имеют какого-либо значения. Просто мастера своего дела показывают свое искусство. Сценарий Беверли Грэй по рассказу Роберта Кинга рассказывает о том, как Люк (Тримбл) приезжает к брату и узнает, что тот убит после боя на улице. Бой на подпольном турнире он выиграл и возвращался домой с призовыми деньгами. Надо разобраться и отомстить. Вряд ли к этому стоит что-либо добавлять. Драками фильм начинается и драками заканчивается. Исключительно для поклонников жанра. (Иванов М.)
Доп. информация: Дорожка с Л. Володарским нормализирована, синхронизирована и наложена ale_x2008 при помощи Adobe Audition, Sony Vegas и VirtualDubMod.
За оцифрованную с VHS дорожку благодарим - alenavova
Дорожка с В. Горчаковым синхронизирована и наложена ale_x2008 при помощи Adobe Audition, Sony Vegas и VirtualDubMod.
За оцифрованную с VHS дорожку благодарим - RoxMarty

Релиз
Сэмпл: https://yadi.sk/i/0zzHMy8c3DqoSg
Качество видео: DVDRip [из сети]
Формат видео: AVI
Видео: XviD build 73, 704x544 (1.29:1), 25 fps, 1661 kbps avg, 0.17 bit/pixel
Аудио: AC3 Dolby Digital, 48000Hz, 2/0 (L,R) ch (mono), 192.00 kbps avg
Аудио 2: AC3 Dolby Digital, 48000Hz, 2/0 (L,R) ch (mono), 192.00 kbps avg

MediaInfo

Полный контакт (Full Contact) Volodarsky, Gorchakov [by ale_x2008].avi
Format : AVI
Format/Info : Audio Video Interleave
File size : 1.34 GiB
Duration : 1 h 32 min
Overall bit rate : 2 060 kb/s
Movie name : Полный контакт (Full Contact) Volodarsky, Gorchakov [by ale_x2008]
Director : by ale_x2008
Writing application : VirtualDubMod 1.5.10.3 (build 2550/release)
Copyright : Edich2
Comment : torrentc
Video
ID : 0
Format : MPEG-4 Visual
Format profile : Advanced Simple@L5
Format settings, BVOP : 1
Format settings, QPel : No
Format settings, GMC : No warppoints
Format settings, Matrix : Custom
Codec ID : XVID
Codec ID/Hint : XviD
Duration : 1 h 32 min
Bit rate : 1 662 kb/s
Width : 704 pixels
Height : 544 pixels
Display aspect ratio : 1.294
Frame rate : 25.000 FPS
Color space : YUV
Chroma subsampling : 4:2:0
Bit depth : 8 bits
Scan type : Progressive
Compression mode : Lossy
Bits/(Pixel*Frame) : 0.174
Stream size : 1.08 GiB (81%)
Writing library : XviD 73
Audio #1
ID : 1
Format : AC-3
Format/Info : Audio Coding 3
Mode extension : CM (complete main)
Format settings, Endianness : Big
Codec ID : 2000
Duration : 1 h 32 min
Bit rate mode : Constant
Bit rate : 192 kb/s
Channel(s) : 2 channels
Channel positions : Front: L R
Sampling rate : 48.0 kHz
Frame rate : 31.250 FPS (1536 spf)
Bit depth : 16 bits
Compression mode : Lossy
Stream size : 128 MiB (9%)
Alignment : Split accross interleaves
Interleave, duration : 40 ms (1.00 video frame)
Interleave, preload duratio : 500 ms
Audio #2
ID : 2
Format : AC-3
Format/Info : Audio Coding 3
Mode extension : CM (complete main)
Format settings, Endianness : Big
Codec ID : 2000
Duration : 1 h 32 min
Bit rate mode : Constant
Bit rate : 192 kb/s
Channel(s) : 2 channels
Channel positions : Front: L R
Sampling rate : 48.0 kHz
Frame rate : 31.250 FPS (1536 spf)
Bit depth : 16 bits
Compression mode : Lossy
Stream size : 128 MiB (9%)
Alignment : Split accross interleaves
Interleave, duration : 40 ms (1.00 video frame)
Interleave, preload duratio : 500 ms

Скриншоты




[torrentc.info]_torrent-5161325.torrent
Торрент: Зарегистрирован ·  [ 2017-02-14 13:48 ] ·  beeb883670b53df5449a5be8208fa88794095c5f

14 KB

Статус: проверено
Скачан: 0 раз
Размер: 1.34 GB
Оценка: 
(Голосов: 0)
Сказали спасибо: 0  Спасибо
Похожие темы
[Профиль]    [ЛС]
Показать сообщения:    
Ответить на тему

Текущее время: Сегодня 07:05

Часовой пояс: GMT + 7



Вы не можете начинать темы
Вы не можете отвечать на сообщения
Вы не можете редактировать свои сообщения
Вы не можете удалять свои сообщения
Вы не можете голосовать в опросах
Вы не можете прикреплять файлы к сообщениям
Вы можете скачивать файлы