Я надеюсь, что выкарабкаюсь / Чао, профессор / Io speriamo che me la cavo / Ciao, Professore! (Лина Вертмюллер / Lina Wertmuller) [1992, Италия, драма, комедия, семейный, DVDRip] MVO + AVO (Михаил Иванов) + Original Ita

Ответить на тему
Статистика раздачи [Обновить пиров]
Размер:  1.37 GB   |    Зарегистрирован:  1 год 7 месяцев   |    Скачан:  0 раз

Полного источника не было: Никогда

 
   
 
 
 
Автор Сообщение

torrentc.info

Создавать темы 14-Фев-2017 13:48

[Цитировать]

Я надеюсь, что выкарабкаюсь / Чао, профессор / Io speriamo che me la cavo / Ciao, Professore!
Страна: Италия
Жанр: Драма, комедия, семейный
Год выпуска: 1992
Продолжительность: 1:32:11
Перевод 1: Профессиональный (многоголосый закадровый)
Перевод 2: Авторский (одноголосый закадровый) Михаил Иванов
Cубтитры: нет
Оригинальная аудиодорожка: Итальянский
Режиссер: Лина Вертмюллер / Lina Wertmuller
В ролях: Паоло Вилладжио, Иса Даниэли, Джиджио Морра, Серджио Солли, Эстерина Карлони, Филомена Лието, Алессандра Детора, Раффаэле Джойя, Адриано Панталео
Описание: Учитель Марко Туллио Сперелли направлен с индустриального Севера работать на юге Италии, в экзотическом, бедном городишке Де Амичес. Дело происходит в бандитском районе, и все взрослые и дети думают не об учебе, а о том, как бы заработать себе на пропитание любыми способами. В ходе обучения ему приходится пережить немало смешных и грустных приключений.
Доп. информация: Рип с [url=viewtopic.php?t=5355617]http://torrentc/forum/viewtopic.php?t=5355617[/url]
Сэмпл: http://multi-up.com/1140175
Качество видео: DVDRip
Формат видео: AVI
Видео: XVID, 672х368, 23.976 fps, 2 125 Kbps
Аудио 1: Русский (AC3 192 kbps 2 ch 48.0 KHz)
Аудио 2: Русский (AC3 192 kbps 2 ch 48.0 KHz)
Аудио 3: Итальянский (AC3 192 kbps 2 ch 48.0 KHz)

MediaInfo

General
Complete name : C:\Documents and Settings\Admin\Мои документы\Downloads\Io speriamo che me la cavo 1992.avi
Format : AVI
Format/Info : Audio Video Interleave
File size : 1.37 GiB
Duration : 1h 32mn
Overall bit rate : 2 125 Kbps
Writing application : VirtualDubMod 1.5.4.1 (build 2178/release)
Writing library : VirtualDubMod build 2178/release
Video
ID : 0
Format : MPEG-4 Visual
Format profile : Advanced Simple@L5
Format settings, BVOP : 1
Format settings, QPel : No
Format settings, GMC : No warppoints
Format settings, Matrix : Custom
Codec ID : XVID
Codec ID/Hint : XviD
Duration : 1h 32mn
Bit rate : 1 538 Kbps
Width : 672 pixels
Height : 368 pixels
Display aspect ratio : 1.85:1
Frame rate : 23.976 fps
Color space : YUV
Chroma subsampling : 4:2:0
Bit depth : 8 bits
Scan type : Progressive
Compression mode : Lossy
Bits/(Pixel*Frame) : 0.259
Stream size : 1 014 MiB (72%)
Writing library : XviD 1.2.1 (UTC 2008-12-04)
Audio #1
ID : 1
Format : AC-3
Format/Info : Audio Coding 3
Mode extension : CM (complete main)
Format settings, Endianness : Big
Codec ID : 2000
Duration : 1h 32mn
Bit rate mode : Constant
Bit rate : 192 Kbps
Channel(s) : 2 channels
Channel positions : Front: L R
Sampling rate : 48.0 KHz
Bit depth : 16 bits
Compression mode : Lossy
Stream size : 127 MiB (9%)
Alignment : Split accross interleaves
Interleave, duration : 96 ms (2.30 video frames)
Interleave, preload duration : 96 ms
Language : Russian
Audio #2
ID : 2
Format : AC-3
Format/Info : Audio Coding 3
Mode extension : CM (complete main)
Format settings, Endianness : Big
Codec ID : 2000
Duration : 1h 32mn
Bit rate mode : Constant
Bit rate : 192 Kbps
Channel(s) : 2 channels
Channel positions : Front: L R
Sampling rate : 48.0 KHz
Bit depth : 16 bits
Compression mode : Lossy
Stream size : 127 MiB (9%)
Alignment : Split accross interleaves
Interleave, duration : 96 ms (2.30 video frames)
Interleave, preload duration : 96 ms
Language : Russian
Audio #3
ID : 3
Format : AC-3
Format/Info : Audio Coding 3
Mode extension : CM (complete main)
Format settings, Endianness : Big
Codec ID : 2000
Duration : 1h 32mn
Bit rate mode : Constant
Bit rate : 192 Kbps
Channel(s) : 2 channels
Channel positions : Front: L R
Sampling rate : 48.0 KHz
Bit depth : 16 bits
Compression mode : Lossy
Stream size : 127 MiB (9%)
Alignment : Split accross interleaves
Interleave, duration : 96 ms (2.30 video frames)
Interleave, preload duration : 96 ms
Language : Italiano

Скриншот c названием фильма

Скриншоты



[torrentc.info]_torrent-5355579.torrent
Торрент: Зарегистрирован ·  [ 2017-02-14 13:48 ] ·  e8398da3f85fada3c68e9e37952111277225e47d

14 KB

Статус: проверено
Скачан: 0 раз
Размер: 1.37 GB
Оценка: 
(Голосов: 0)
Сказали спасибо: 0  Спасибо
Похожие темы
[Профиль]    [ЛС]
Показать сообщения:    
Ответить на тему

Текущее время: Сегодня 13:36

Часовой пояс: GMT + 7



Вы не можете начинать темы
Вы не можете отвечать на сообщения
Вы не можете редактировать свои сообщения
Вы не можете удалять свои сообщения
Вы не можете голосовать в опросах
Вы не можете прикреплять файлы к сообщениям
Вы можете скачивать файлы