(Gothic Rock) [CD] VA - Gothicum - 2003, FLAC (tracks+.cue), lossless

Ответить на тему
Статистика раздачи [Обновить пиров]
Размер:  470 MB   |    Зарегистрирован:  1 год 7 месяцев   |    Скачан:  0 раз

Полного источника не было: Никогда

 
   
 
 
 
Автор Сообщение

torrentc.info

Создавать темы 04-Мар-2017 10:24

[Цитировать]

Gothicum
Жанр: Gothic Rock
Носитель: CD
Страна-производитель диска (релиза): Russia
Год издания: 2003
Издатель (лейбл): CD-Maximum
Номер по каталогу: S&V 065
Аудиокодек: FLAC (*.flac)
Тип рипа: tracks+.cue
Битрейт аудио: lossless
Продолжительность: 1:12:53.
Источник (релизер): clustert
Наличие сканов в содержимом раздачи: да
Треклист:
01. Empirium / When Shadows Grow Longer [0:03:18.24]
02. Inkubus Sukkubus / Io Pan [0:05:05.45]
03. Tenhi / Vilja [0:05:03.70]
04. On Thorns I Lay / Deep Thoughts [0:06:47.67]
05. Autumnblaze / The Nature Of Music [0:04:43.24]
06. Orplid / Spater Tag [0:04:17.19]
07. Empirium / Kein Hirtenfeuer Glimmt Mehr [0:02:40.59]
08. Delight / The Sun [0:05:52.41]
09. Ewigheim / Ein Boser Scherz [0:04:35.24]
10. Angizia / Blumen Von Tschandravat [0:03:04.38]
11. Elend / A Newborn Sailor [0:05:56.69]
12. Wolfenmond / Ma Dame Que J'ayme [0:03:26.22]
13. Artrosis / And I Will [0:04:22.23]
14. Agalloch / ...And The Great Cold Death Of The Earth [0:07:16.30]
15. Orplid / Erzengel Michael [0:06:22.09]

Лог создания рипа

Exact Audio Copy V1.0 beta 3 from 29. August 2011
Отчёт EAC об извлечении, выполненном 5. февраля 2017, 18:14
VA / Gothicum
Дисковод: ASUS DRW-1814BLT Adapter: 4 ID: 0
Режим чтения : ДостоверностьИспользование точного потока : ДаОтключение кэша аудио : ДаИспользование указателей C2 : Нет
Коррекция смещения при чтении : 6Способность читать области Lead-in и Lead-out : НетЗаполнение пропущенных сэмплов тишиной : ДаУдаление блоков с тишиной в начале и конце : НетПри вычислениях CRC использовались нулевые сэмплы : ДаИнтерфейс : Встроенный Win32-интерфейс для Win NT/2000Обработка зазоров : Добавлено к предыдущему треку
Выходной формат : Пользовательский кодировщикВыбранный битрейт : 128 kBit/sКачество : ВысокийДобавление ID3-тега : НетУтилита сжатия : C:\Program Files\Exact Audio Copy\Flac\flac.exeДополнительные параметры : -V -8 -T "Genre=%genre%" -T "Artist=%artist%" -T "Title=%title%" -T "Album=%albumtitle%" -T "Date=%year%" -T "Tracknumber=%tracknr%" -T "Comment=EAC1.0b2 FLAC -8" %source%
TOC извлечённого CD
Трек | Старт | Длительность | Начальный сектор | Конечный сектор --------------------------------------------------------------------- 1 | 0:00.00 | 3:18.24 | 0 | 14873 2 | 3:18.24 | 5:05.45 | 14874 | 37793 3 | 8:23.69 | 5:03.70 | 37794 | 60588 4 | 13:27.64 | 6:47.67 | 60589 | 91180 5 | 20:15.56 | 4:43.24 | 91181 | 112429 6 | 24:59.05 | 4:17.19 | 112430 | 131723 7 | 29:16.24 | 2:40.59 | 131724 | 143782 8 | 31:57.08 | 5:52.41 | 143783 | 170223 9 | 37:49.49 | 4:35.24 | 170224 | 190872 10 | 42:24.73 | 3:04.38 | 190873 | 204710 11 | 45:29.36 | 5:56.69 | 204711 | 231479 12 | 51:26.30 | 3:26.22 | 231480 | 246951 13 | 54:52.52 | 4:22.23 | 246952 | 266624 14 | 59:15.00 | 7:16.30 | 266625 | 299354 15 | 66:31.30 | 6:22.09 | 299355 | 328013
Трек 1
Имя файла R:\Раздача 72\VA - Gothicum - 2003\01 When Shadows Grow Longer .wav
Длина предзазора 0:00:02.00
Пиковый уровень 100.0 % Скорость извлечения 2.6 X Качество трека 100.0 % CRC теста 34A3C829 CRC копии 34A3C829 Точное извлечение (достоверность 4) [0D108E99] (AR v2) Копирование... OK
Трек 2
Имя файла R:\Раздача 72\VA - Gothicum - 2003\02 Io Pan .wav
Длина предзазора 0:00:04.66
Пиковый уровень 98.4 % Скорость извлечения 3.1 X Качество трека 100.0 % CRC теста 69B0D3FE CRC копии 69B0D3FE Точное извлечение (достоверность 4) [AB6621F8] (AR v2) Копирование... OK
Трек 3
Имя файла R:\Раздача 72\VA - Gothicum - 2003\03 Vilja .wav
Длина предзазора 0:00:08.21
Пиковый уровень 98.8 % Скорость извлечения 3.4 X Качество трека 100.0 % CRC теста 88D23EF5 CRC копии 88D23EF5 Точное извлечение (достоверность 4) [C9361DD8] (AR v2) Копирование... OK
Трек 4
Имя файла R:\Раздача 72\VA - Gothicum - 2003\04 Deep Thoughts .wav
Длина предзазора 0:00:07.02
Пиковый уровень 98.8 % Скорость извлечения 3.8 X Качество трека 100.0 % CRC теста 802F28F1 CRC копии 802F28F1 Точное извлечение (достоверность 4) [0730C1F3] (AR v2) Копирование... OK
Трек 5
Имя файла R:\Раздача 72\VA - Gothicum - 2003\05 The Nature Of Music .wav
Длина предзазора 0:00:05.21
Пиковый уровень 99.9 % Скорость извлечения 4.0 X Качество трека 100.0 % CRC теста 54791180 CRC копии 54791180 Точное извлечение (достоверность 4) [96F00136] (AR v2) Копирование... OK
Трек 6
Имя файла R:\Раздача 72\VA - Gothicum - 2003\06 Spater Tag .wav
Длина предзазора 0:00:03.59
Пиковый уровень 98.8 % Скорость извлечения 4.1 X Качество трека 100.0 % CRC теста 9964E409 CRC копии 9964E409 Точное извлечение (достоверность 4) [32402280] (AR v2) Копирование... OK
Трек 7
Имя файла R:\Раздача 72\VA - Gothicum - 2003\07 Kein Hirtenfeuer Glimmt Mehr .wav
Длина предзазора 0:00:04.13
Пиковый уровень 98.8 % Скорость извлечения 3.9 X Качество трека 100.0 % CRC теста 4B99CF36 CRC копии 4B99CF36 Точное извлечение (достоверность 4) [22A85F14] (AR v2) Копирование... OK
Трек 8
Имя файла R:\Раздача 72\VA - Gothicum - 2003\08 The Sun .wav
Длина предзазора 0:00:04.01
Пиковый уровень 97.3 % Скорость извлечения 2.8 X Качество трека 99.9 % CRC теста DF82A758 CRC копии DF82A758 Точное извлечение (достоверность 4) [4FD6FD40] (AR v2) Копирование... OK
Трек 9
Имя файла R:\Раздача 72\VA - Gothicum - 2003\09 Ein Boser Scherz .wav
Длина предзазора 0:00:03.44
Пиковый уровень 98.8 % Скорость извлечения 4.7 X Качество трека 100.0 % CRC теста B9F59860 CRC копии B9F59860 Точное извлечение (достоверность 4) [47D38963] (AR v2) Копирование... OK
Трек 10
Имя файла R:\Раздача 72\VA - Gothicum - 2003\10 Blumen Von Tschandravat .wav
Длина предзазора 0:00:03.44
Пиковый уровень 98.9 % Скорость извлечения 4.6 X Качество трека 100.0 % CRC теста 1689E21D CRC копии 1689E21D Точное извлечение (достоверность 4) [4C822840] (AR v2) Копирование... OK
Трек 11
Имя файла R:\Раздача 72\VA - Gothicum - 2003\11 A Newborn Sailor .wav
Длина предзазора 0:00:03.61
Пиковый уровень 99.9 % Скорость извлечения 3.2 X Качество трека 99.9 % CRC теста 3B158D8F CRC копии 3B158D8F Точное извлечение (достоверность 4) [D8F611ED] (AR v2) Копирование... OK
Трек 12
Имя файла R:\Раздача 72\VA - Gothicum - 2003\12 Ma Dame Que J'ayme .wav
Длина предзазора 0:00:03.49
Пиковый уровень 92.5 % Скорость извлечения 4.9 X Качество трека 100.0 % CRC теста 84B77894 CRC копии 84B77894 Точное извлечение (достоверность 4) [53EF513B] (AR v2) Копирование... OK
Трек 13
Имя файла R:\Раздача 72\VA - Gothicum - 2003\13 And I Will .wav
Длина предзазора 0:00:03.40
Пиковый уровень 100.0 % Скорость извлечения 5.2 X Качество трека 100.0 % CRC теста 9E8F1303 CRC копии 9E8F1303 Точное извлечение (достоверность 4) [83D7D9CF] (AR v2) Копирование... OK
Трек 14
Имя файла R:\Раздача 72\VA - Gothicum - 2003\14 ...And The Great Cold Death Of The Earth .wav
Длина предзазора 0:00:03.38
Пиковый уровень 100.0 % Скорость извлечения 5.8 X Качество трека 100.0 % CRC теста 3F97834E CRC копии 3F97834E Точное извлечение (достоверность 4) [D1553E4B] (AR v2) Копирование... OK
Трек 15
Имя файла R:\Раздача 72\VA - Gothicum - 2003\15 Erzengel Michael .wav
Длина предзазора 0:00:01.51
Пиковый уровень 98.8 % Скорость извлечения 3.7 X Качество трека 99.9 % CRC теста BC870EB5 CRC копии BC870EB5 Точное извлечение (достоверность 4) [FEA30934] (AR v2) Копирование... OK
Все треки извлечены точно
Ошибок не произошло
Конец отчёта
==== Контрольная сумма отчёта 18FA6B378DED9B1616D45201E720C0C0D5A30A28125ACC1AA253259BE28AB65B ====

Содержание индексной карты (.CUE)

REM GENRE "Gothic Rock"REM DATE 2003REM DISCID D511150FREM COMMENT "ExactAudioCopy v1.0b3"PERFORMER "VA"TITLE "Gothicum"FILE "01 When Shadows Grow Longer .wav" WAVE TRACK 01 AUDIO TITLE "When Shadows Grow Longer" PERFORMER "Empirium" INDEX 01 00:00:00 TRACK 02 AUDIO TITLE "Io Pan" PERFORMER "Inkubus Sukkubus" INDEX 00 03:13:33FILE "02 Io Pan .wav" WAVE INDEX 01 00:00:00 TRACK 03 AUDIO TITLE "Vilja" PERFORMER "Tenhi" INDEX 00 04:57:24FILE "03 Vilja .wav" WAVE INDEX 01 00:00:00 TRACK 04 AUDIO TITLE "Deep Thoughts" PERFORMER "On Thorns I Lay" INDEX 00 04:56:68FILE "04 Deep Thoughts .wav" WAVE INDEX 01 00:00:00 TRACK 05 AUDIO TITLE "The Nature Of Music" PERFORMER "Autumnblaze" INDEX 00 06:42:46FILE "05 The Nature Of Music .wav" WAVE INDEX 01 00:00:00 TRACK 06 AUDIO TITLE "Spater Tag" PERFORMER "Orplid" INDEX 00 04:39:40FILE "06 Spater Tag .wav" WAVE INDEX 01 00:00:00 TRACK 07 AUDIO TITLE "Kein Hirtenfeuer Glimmt Mehr" PERFORMER "Empirium" INDEX 00 04:13:06FILE "07 Kein Hirtenfeuer Glimmt Mehr .wav" WAVE INDEX 01 00:00:00 TRACK 08 AUDIO TITLE "The Sun" PERFORMER "Delight" INDEX 00 02:36:58FILE "08 The Sun .wav" WAVE INDEX 01 00:00:00 TRACK 09 AUDIO TITLE "Ein Boser Scherz" PERFORMER "Ewigheim" INDEX 00 05:48:72FILE "09 Ein Boser Scherz .wav" WAVE INDEX 01 00:00:00 TRACK 10 AUDIO TITLE "Blumen Von Tschandravat" PERFORMER "Angizia" INDEX 00 04:31:55FILE "10 Blumen Von Tschandravat .wav" WAVE INDEX 01 00:00:00 TRACK 11 AUDIO TITLE "A Newborn Sailor" PERFORMER "Elend" INDEX 00 03:00:52FILE "11 A Newborn Sailor .wav" WAVE INDEX 01 00:00:00 TRACK 12 AUDIO TITLE "Ma Dame Que J'ayme" PERFORMER "Wolfenmond" INDEX 00 05:53:20FILE "12 Ma Dame Que J'ayme .wav" WAVE INDEX 01 00:00:00 TRACK 13 AUDIO TITLE "And I Will" PERFORMER "Artrosis" INDEX 00 03:22:57FILE "13 And I Will .wav" WAVE INDEX 01 00:00:00 TRACK 14 AUDIO TITLE "...And The Great Cold Death Of The Earth" PERFORMER "Agalloch" INDEX 00 04:18:60FILE "14 ...And The Great Cold Death Of The Earth .wav" WAVE INDEX 01 00:00:00 TRACK 15 AUDIO TITLE "Erzengel Michael" PERFORMER "Orplid" INDEX 00 07:14:54FILE "15 Erzengel Michael .wav" WAVE INDEX 01 00:00:00


[torrentc.info]_t_5354293.torrent
Торрент: Зарегистрирован ·  [ 2017-03-04 10:18 ] ·  59c014d8f4068fb8ef47d493d8327d5289a2b740

20 KB

Статус: проверено
Скачан: 0 раз
Размер: 470 MB
Оценка: 
(Голосов: 0)
Сказали спасибо: 0  Спасибо
Похожие темы
[Профиль]    [ЛС]
Показать сообщения:    
Ответить на тему

Текущее время: Сегодня 12:19

Часовой пояс: GMT + 7



Вы не можете начинать темы
Вы не можете отвечать на сообщения
Вы не можете редактировать свои сообщения
Вы не можете удалять свои сообщения
Вы не можете голосовать в опросах
Вы не можете прикреплять файлы к сообщениям
Вы можете скачивать файлы