Мать / Mother (Альберт Брукс / Albert Brooks) [1996, США, драма, комедия, DVDRip-AVC] Sub Rus (Bobby Z) + Sub Eng + Original Eng

Ответить на тему
Статистика раздачи [Обновить пиров]
Размер:  1.21 GB   |    Зарегистрирован:  1 год 7 месяцев   |    Скачан:  0 раз

Полного источника не было: Никогда

 
   
 
 
 
Автор Сообщение

torrentc.info

Создавать темы 14-Фев-2017 13:48

[Цитировать]

Мать / Mother
Страна: США
Жанр: драма, комедия
Год выпуска: 1996
Продолжительность: 01:43:50
Перевод: Субтитры Bobby_Z
Cубтитры: русские и английские
Оригинальная аудиодорожка: английский
Режиссер: Альберт Брукс / Albert Brooks
В ролях: Альберт Брукс, Дебби Рейнолдс, Пол Коллинз, Лаура Уикс, Джон К. МакГинли, Ричард Ассад, Джой Нейбр, Ванесса Уильямс, Лиза Кудроу, Роб Морроу и др.
Описание: Джон Гендерсон, писатель-фантаст средних лет, приезжает жить к матери после двух неудачных попыток создать семью. Погруженный в себя, главный герой возвращается домой, чтобы узнать, почему мать так и не оценила его по достоинству. Джон надеется, что, узнав причину и наладив отношения с матерью, он научится уживаться и с другими женщинами.
Но вскоре он понимает, что сам никогда не ценил ее по-настоящему. Постепенно происходят изменения в их отношениях, оказывающие влияние не только на писателя, но и на его младшего брата Джеффа. В основе этой глубокой истории — мудрость, связанная с горьковатым юмором.
Доп. информация: Фильм проблематично найти в Сети, а на трекере его нет, поэтому решил залить. Субтитры я не нашел вообще, поэтому сделал свои. Просьба указать в комментариях свое мнение относительно их качества
Сэмпл: http://multi-up.com/1140215
Качество видео: DVDRip
Формат видео: MKV
Видео: V_MPEG4/ISO/AVC, 720х480@850х480, 16:9, 23,976 кадра/сек, 1499 Кбит/сек
Аудио: A_AAC, 48,0 КГц, 160 Кбит/сек, 2 канала, English
Формат субтитров: softsub (SRT)
Доп. информация о субтитрах: русские

MediaInfo

Общее
Уникальный идентификатор : 240893530817141025257927816210101156881 (0xB53A680C84485CD384EE07B7C1F1BC11)
Полное имя : D:\Mother_1996\Mother_1996.mkv
Формат : Matroska
Версия формата : Version 4 / Version 2
Размер файла : 1,21 Гбайт
Продолжительность : 1 ч. 43 м.
Общий поток : 1666 Кбит/сек
Дата кодирования : UTC 2017-02-11 10:49:15
Программа кодирования : mkvmerge v9.8.0 ('Kuglblids') 32bit
Библиотека кодирования : libebml v1.3.4 + libmatroska v1.4.5
Видео
Идентификатор : 1
Формат : AVC
Формат/Информация : Advanced Video Codec
Профиль формата : High@L3
Параметр CABAC формата : Да
Параметр ReFrames формата : 3 кадра
Идентификатор кодека : V_MPEG4/ISO/AVC
Продолжительность : 1 ч. 43 м.
Битрейт : 1499 Кбит/сек
Ширина : 720 пикселей
Высота : 480 пикселей
Соотношение сторон : 16:9
Режим частоты кадров : Переменный
Частота кадров : 23,976 (23976/1000) кадра/сек
Частота кадров в оригинале : 23,976 (24000/1001) кадра/сек
Цветовое пространство : YUV
Субдискретизация насыщенности : 4:2:0
Битовая глубина : 8 бит
Тип развёртки : Прогрессивная
Бит/(Пиксели*Кадры) : 0.181
Размер потока : 1,09 Гбайт (90%)
Библиотека кодирования : x264 core 79
Настройки программы : cabac=1 / ref=3 / deblock=1:0:0 / analyse=0x3:0x113 / me=hex / subme=7 / psy=1 / psy_rd=1.0:0.0 / mixed_ref=1 / me_range=16 / chroma_me=1 / trellis=1 / 8x8dct=1 / cqm=0 / deadzone=21,11 / chroma_qp_offset=-2 / threads=1 / nr=0 / decimate=1 / mbaff=0 / constrained_intra=0 / bframes=3 / b_pyramid=0 / b_adapt=2 / b_bias=0 / direct=1 / wpredb=1 / wpredp=2 / keyint=240 / keyint_min=24 / scenecut=40 / rc_lookahead=50 / rc=crf / mbtree=1 / crf=20.0 / qcomp=0.60 / qpmin=10 / qpmax=51 / qpstep=4 / ip_ratio=1.40 / aq=1:1.00
Язык : English
Default : Да
Forced : Нет
Цветовой диапазон : Limited
Основные цвета : BT.601 NTSC
Характеристики трансфера : BT.709
Коэффициенты матрицы : BT.601
Аудио
Идентификатор : 2
Формат : AAC
Формат/Информация : Advanced Audio Codec
Профиль формата : LC
Идентификатор кодека : A_AAC
Продолжительность : 1 ч. 43 м.
Битрейт : 160 Кбит/сек
Каналы : 2 канала
Расположение каналов : Front: L R
Частота : 48,0 КГц
Частота кадров : 46,875 кадров/сек (1024 spf)
Метод сжатия : С потерями
Размер потока : 119 Мбайт (10%)
Язык : English
Default : Да
Forced : Нет
Текст #1
Идентификатор : 3
Формат : VobSub
Режим смешивания : zlib
Идентификатор кодека : S_VOBSUB
Идентификатор кодека/Информация : Picture based subtitle format used on DVDs
Продолжительность : 1 ч. 43 м.
Битрейт : 3753 бит/сек
Count of elements : 2326
Размер потока : 2,77 Мбайт (0%)
Язык : English
Default : Нет
Forced : Нет
Текст #2
Идентификатор : 4
Формат : UTF-8
Идентификатор кодека : S_TEXT/UTF8
Идентификатор кодека/Информация : UTF-8 Plain Text
Продолжительность : 1 ч. 43 м.
Битрейт : 94 бит/сек
Count of elements : 2326
Размер потока : 71,5 Кбайт (0%)
Язык : English
Default : Нет
Forced : Нет
Текст #3
Идентификатор : 5
Формат : UTF-8
Идентификатор кодека : S_TEXT/UTF8
Идентификатор кодека/Информация : UTF-8 Plain Text
Продолжительность : 1 ч. 43 м.
Битрейт : 150 бит/сек
Count of elements : 2227
Размер потока : 114 Кбайт (0%)
Default : Да
Forced : Нет

Скриншот c названием фильма

Скриншоты



Пример субтитров

1
00:00:02,961 --> 00:00:03,962
Что-что?
2
00:00:03,962 --> 00:00:06,464
Ты купишь что-нибудь
для женщины здесь?
3
00:00:06,464 --> 00:00:07,465
Да
4
00:00:07,465 --> 00:00:08,966
Для какой?
5
00:00:20,345 --> 00:00:21,846
Извините?
6
00:00:21,846 --> 00:00:23,848
Рады видеть вас
в "VICTORIA'S SECRET".
Могу я вам чем-то помочь?
7
00:00:23,848 --> 00:00:26,350
Да, хочу купить своей маме
парочку трусиков с вырезом
8
00:00:26,351 --> 00:00:27,735
Что ты хочешь?
9
00:00:27,736 --> 00:00:29,738
Прекрасно.
Вы знаете свой размер, мэм?
10
00:00:30,105 --> 00:00:31,106
Какой у тебя размер?
11
00:00:31,106 --> 00:00:34,109
Никакой--
12
00:00:34,109 --> 00:00:36,244
Он просто так шутит.
Он писатель
13
00:00:36,244 --> 00:00:37,745
Он просто захотел пошутить
14
00:00:38,113 --> 00:00:40,115
Мы уже уходим. Спасибо
15
00:00:40,115 --> 00:00:41,616
Она очень застенчивая.
Сексуальная, но застенчивая
16
00:00:41,616 --> 00:00:43,117
Это просто
эксперимент такой,
понимаете?
17
00:00:43,618 --> 00:00:46,120
Я часть его эксперимента...
18
00:00:46,121 --> 00:00:49,124
Все не так, как вы думаете
19
00:00:57,348 --> 00:00:59,466
Напомни мне
позвонить Джеффу,
когда будем дома
20
00:00:59,467 --> 00:01:01,469
Ты уже раз тридцатый
просишь меня об этом


[torrentc.info]_torrent-5355445.torrent
Торрент: Зарегистрирован ·  [ 2017-02-14 13:48 ] ·  8c03a5e5ba927df386213ca0d06542f1955dc6ae

13 KB

Статус: проверено
Скачан: 0 раз
Размер: 1.21 GB
Оценка: 
(Голосов: 0)
Сказали спасибо: 0  Спасибо
Похожие темы
[Профиль]    [ЛС]
Показать сообщения:    
Ответить на тему

Текущее время: Сегодня 13:04

Часовой пояс: GMT + 7



Вы не можете начинать темы
Вы не можете отвечать на сообщения
Вы не можете редактировать свои сообщения
Вы не можете удалять свои сообщения
Вы не можете голосовать в опросах
Вы не можете прикреплять файлы к сообщениям
Вы можете скачивать файлы