Пусть это буду я / Let It Be Me (Элинор Бергстин Eleanor Bergstein) [1995, США, драма, мелодрама, VHSRip] AVO (Павел Санаев) + DVO (ТВ 6)

Ответить на тему
Статистика раздачи [Обновить пиров]
Размер:  879 MB   |    Зарегистрирован:  1 год 9 месяцев   |    Скачан:  0 раз

Полного источника не было: Никогда

 
   
 
 
 
Автор Сообщение

torrentc.info

Создавать темы 14-Фев-2017 13:48

[Цитировать]

Пусть это буду я / Let It Be Me
Страна: США
Жанр: драма, мелодрама
Год выпуска: 1995
Продолжительность: 01:31:41
Перевод: Авторский одноголосый авторский – Павел Санаев
Перевод 2: Профессиональный (двухголосый закадровый) ТВ 6
Cубтитры: нет
Режиссер: Элинор Бергстин Eleanor Bergstein
В ролях: Кэмпбелл Скотт, Дженнифер Билз, Янси Батлер, Джеймс Гудвин, Патрик Стюарт, Лесли Карон, Джош Мостел, Элиз Нил, Донна Шелли, Джеффри Шелли
Описание: Чего не сделаешь ради любимой девушки! Гэбриел решает к своей свадьбе научиться танцевать и начинает брать уроки танцев. Вот только его наставница Коринна оказывается слишком симпатичной…
Доп. информация: Спасибо за дорожку ТВ 6 denis_mgn_1987
За синхрон дорожки спасибо xelon2006
За активное участие - Sergunka172

Дорожка с П. Санаевым синхронизирована и наложена ale_x2008 при помощи Sony Vegas и VirtualDubMod.
За оцифрованную с VHS дорожку благодарим - RockNick

Релиз
Сэмпл: https://yadi.sk/i/cytDyPRh3DuPee
Качество видео: VHSRip
Формат видео: AVI
Видео: 720x544 (1.32:1), 25 fps, DivX Codec 6.8.3 ~942 kbps avg, 0.10 bit/pixel
Аудио: AC3 Dolby Digital, 48000Hz, 2/0 (L,R) ch (mono), 192.00 kbps avg
Аудио 2: 48 kHz, AC3 Dolby Digital, 2/0 (L,R) ch, ~192 kbps

MediaInfo

Пусть это буду я - Let It Be Me [by Edich2] fix.avi
Format : AVI
Format/Info : Audio Video Interleave
File size : 879 MiB
Duration : 1 h 31 min
Overall bit rate : 1 340 kb/s
Writing application : VirtualDubMod 1.5.10.2 (build 2540/release)
Writing library : VirtualDubMod build 2540/release
Video
ID : 0
Format : MPEG-4 Visual
Format settings, BVOP : 1
Format settings, QPel : No
Format settings, GMC : No warppoints
Format settings, Matrix : Default (H.263)
Codec ID : DX50
Codec ID/Hint : DivX 5
Duration : 1 h 31 min
Bit rate : 942 kb/s
Width : 720 pixels
Height : 544 pixels
Display aspect ratio : 4:3
Frame rate : 25.000 FPS
Color space : YUV
Chroma subsampling : 4:2:0
Bit depth : 8 bits
Scan type : Progressive
Compression mode : Lossy
Bits/(Pixel*Frame) : 0.096
Stream size : 618 MiB (70%)
Writing library : DivX 6.8.3-6.8.4 (UTC 2008-06-07)
Audio #1
ID : 1
Format : AC-3
Format/Info : Audio Coding 3
Mode extension : CM (complete main)
Format settings, Endianness : Big
Codec ID : 2000
Duration : 1 h 31 min
Bit rate mode : Constant
Bit rate : 192 kb/s
Channel(s) : 2 channels
Channel positions : Front: L R
Sampling rate : 48.0 kHz
Frame rate : 31.250 FPS (1536 spf)
Bit depth : 16 bits
Compression mode : Lossy
Stream size : 126 MiB (14%)
Alignment : Split accross interleaves
Interleave, duration : 40 ms (1.00 video frame)
Interleave, preload duratio : 500 ms
Audio #2
ID : 2
Format : AC-3
Format/Info : Audio Coding 3
Mode extension : CM (complete main)
Format settings, Endianness : Big
Codec ID : 2000
Duration : 1 h 31 min
Bit rate mode : Constant
Bit rate : 192 kb/s
Channel(s) : 2 channels
Channel positions : Front: L R
Sampling rate : 48.0 kHz
Frame rate : 31.250 FPS (1536 spf)
Bit depth : 16 bits
Compression mode : Lossy
Stream size : 126 MiB (14%)
Alignment : Aligned on interleaves
Interleave, duration : 40 ms (1.00 video frame)
Interleave, preload duratio : 512 ms

Скриншоты


ТОРРЕНТ ПЕРЕЗАЛИТ.
ДОБАВЛЕНА ДОРОЖКА С ПЕРЕВОДОМ САНАЕВА
.


[torrentc.info]_torrent-5018022.torrent
Торрент: Зарегистрирован ·  [ 2017-02-14 13:48 ] ·  c00361fa7e779047fa44a432fa93f91585e50f21

18 KB

Статус: проверено
Скачан: 0 раз
Размер: 879 MB
Оценка: 
(Голосов: 0)
Сказали спасибо: 0  Спасибо
Похожие темы
[Профиль]    [ЛС]
Показать сообщения:    
Ответить на тему

Текущее время: Сегодня 07:02

Часовой пояс: GMT + 7



Вы не можете начинать темы
Вы не можете отвечать на сообщения
Вы не можете редактировать свои сообщения
Вы не можете удалять свои сообщения
Вы не можете голосовать в опросах
Вы не можете прикреплять файлы к сообщениям
Вы можете скачивать файлы