Ночной охотник / Night Hunter (Рик Джейкобсон / Rick Jacobson) [1996, США, Мистический боевик, DVDRip] AVO (Петр Карцев) + AVO (Сергей Визгунов)

Ответить на тему
Статистика раздачи [Обновить пиров]
Размер:  1.46 GB   |    Зарегистрирован:  1 год 6 месяцев   |    Скачан:  0 раз

Полного источника не было: Никогда

 
   
 
 
 
Автор Сообщение

torrentc.info

Создавать темы 14-Фев-2017 13:48

[Цитировать]

Ночной охотник / Night Hunter
«Wooden stakes and silver bullets can't save you now ... You better pray Jack Cutter can»
Страна: США
Жанр: Мистический боевик
Год выпуска: 1996
Продолжительность: 01:25:54
Перевод: Авторский (одноголосый закадровый) Петр Карцев
Перевод 2: Авторский (одноголосый закадровый) Сергей Визгунов
Cубтитры: нет
Режиссер: Рик Джейкобсон / Rick Jacobson
В ролях: Дон "Дракон" Уилсон, Джеймс Лью, Николас Гест, Мелани Смит, Сид Шэм, Мария Форд, Майкл Кавано, Винсент Клин
Описание: В недалеком будущем человечество оказывается посреди жестокой войны между Вампирами, которым нужна вся человеческая кровь чтобы жить, и Охотниками, защищающими людей от этих ужасных хищников. В ходе яростной борьбы в живых остаются только девять Вампиров,которые собираются в Лос — Анджелесе для последней, решительной битвы. Человечеству грозит неминуемая гибель, но на защиту встает последний Охотник. Он один может остановить злобных тварей и спасти людей от полного истребления… Значит он должен это сделать…
Доп. информация: Дорожка с С. Визгуновым синхронизирована и наложена ale_x2008 при помощи Adobe Audition, Sony Vegas и VirtualDubMod.
За оцифрованную с VHS дорожку благодарим - alenavova

Дорожка с П. Карцевым синхронизирована и наложена ale_x2008 при помощи Adobe Audition, Sony Vegas и VirtualDubMod.
За оцифрованную с VHS дорожку благодарим - ilya29 и за активное участие - Sergunka172

Релиз
Сэмпл: https://yadi.sk/i/7Ob0OPpI3DucCR
Качество видео: DVDRip
Формат видео: AVI
Видео: 640x480 (1.33:1), 23.976 fps, XviD build 73 ~2037 kbps avg, 0.28 bit/pixel
Аудио: AC3 Dolby Digital, 48000Hz, 2/0 (L,R) ch (mono), 192.00 kbps avg
Аудио 2: AC3 Dolby Digital, 48000Hz, 2/0 (L,R) ch (mono), 192.00 kbps avg

MediaInfo

Ночной охотник (Night Hunter) [by ale_x2008].avi
Format : AVI
Format/Info : Audio Video Interleave
File size : 1.46 GiB
Duration : 1 h 25 min
Overall bit rate : 2 436 kb/s
Movie name : Ночной охотник (Night Hunter) [by ale_x2008]
Director : by ale_x2008
Writing application : VirtualDubMod 1.5.10.2 (build 2540/release)
Writing library : VirtualDubMod build 2540/release
Copyright : Edich2
Comment : torrentc
Video
ID : 0
Format : MPEG-4 Visual
Format profile : Advanced Simple@L5
Format settings, BVOP : 1
Format settings, QPel : No
Format settings, GMC : No warppoints
Format settings, Matrix : Custom
Codec ID : XVID
Codec ID/Hint : XviD
Duration : 1 h 25 min
Bit rate : 2 038 kb/s
Width : 640 pixels
Height : 480 pixels
Display aspect ratio : 4:3
Frame rate : 23.976 (24000/1001) FPS
Color space : YUV
Chroma subsampling : 4:2:0
Bit depth : 8 bits
Scan type : Progressive
Compression mode : Lossy
Bits/(Pixel*Frame) : 0.277
Stream size : 1.22 GiB (84%)
Writing library : XviD 73
Audio #1
ID : 1
Format : AC-3
Format/Info : Audio Coding 3
Mode extension : CM (complete main)
Format settings, Endianness : Big
Codec ID : 2000
Duration : 1 h 25 min
Bit rate mode : Constant
Bit rate : 192 kb/s
Channel(s) : 2 channels
Channel positions : Front: L R
Sampling rate : 48.0 kHz
Frame rate : 31.250 FPS (1536 spf)
Bit depth : 16 bits
Compression mode : Lossy
Stream size : 118 MiB (8%)
Alignment : Split accross interleaves
Interleave, duration : 42 ms (1.00 video frame)
Interleave, preload duratio : 500 ms
Audio #2
ID : 2
Format : AC-3
Format/Info : Audio Coding 3
Mode extension : CM (complete main)
Format settings, Endianness : Big
Codec ID : 2000
Duration : 1 h 25 min
Bit rate mode : Constant
Bit rate : 192 kb/s
Channel(s) : 2 channels
Channel positions : Front: L R
Sampling rate : 48.0 kHz
Frame rate : 31.250 FPS (1536 spf)
Bit depth : 16 bits
Compression mode : Lossy
Stream size : 118 MiB (8%)
Alignment : Split accross interleaves
Interleave, duration : 42 ms (1.00 video frame)
Interleave, preload duratio : 500 ms

Скриншоты


ТОРРЕНТ ПЕРЕЗАЛИТ.
ДОБАВЛЕНА ДОРОЖКА С ПЕРЕВОДОМ КАРЦЕВА.


[torrentc.info]_torrent-5331134.torrent
Торрент: Зарегистрирован ·  [ 2017-02-14 13:48 ] ·  7a75f90333fa360727c904fb185e1835385cc917

15 KB

Статус: проверено
Скачан: 0 раз
Размер: 1.46 GB
Оценка: 
(Голосов: 0)
Сказали спасибо: 0  Спасибо
Похожие темы
[Профиль]    [ЛС]
Показать сообщения:    
Ответить на тему

Текущее время: Сегодня 21:03

Часовой пояс: GMT + 7



Вы не можете начинать темы
Вы не можете отвечать на сообщения
Вы не можете редактировать свои сообщения
Вы не можете удалять свои сообщения
Вы не можете голосовать в опросах
Вы не можете прикреплять файлы к сообщениям
Вы можете скачивать файлы