Да помогут нам небеса! / Помогите нам небеса / Heaven Help Us / Catholic Boys (Майкл Диннер / Michael Dinner) [1985, США, драма, комедия, мелодрама, VHSRip] AVO (А.Дольский)

Ответить на тему
Статистика раздачи [Обновить пиров]
Размер:  698 MB   |    Зарегистрирован:  1 год 9 месяцев   |    Скачан:  0 раз

Полного источника не было: Никогда

 
   
 
 
 
Автор Сообщение

torrentc.info

Создавать темы 14-Фев-2017 13:48

[Цитировать]

Да помогут нам небеса! / Помогите нам небеса / Heaven Help Us / Catholic Boys
Страна: США
Жанр: драма, комедия, мелодрама
Год выпуска: 1985
Продолжительность: 01:41:34
Перевод: Авторский (одноголосый закадровый) А.Дольский
Cубтитры: нет
Режиссер: Майкл Диннер / Michael Dinner
В ролях: Дональд Сазерленд, Патрик Демпси, Филип Боско, Нэнси Картрайт, Ярдли Смит, Джон Херд, Уоллес Шоун, Кейт Рид, Джей Пэттерсон, Дженнифер Дандас
Описание: Аннотация от alenavova
Когда-то была юность... Давно, почти 30 лет назад. Какая бы ни была, -
пусть даже не очень веселая, - вспоминает она светло. Да-да, это фильм-воспоминание, действие которого происходит в середине 60-х. "Старая добрая Англия" дает о себе знать существованием религиозных школ Василия Блаженного и Святой Девственницы, где учатся герои, и нравами старшего поколения, отправившего туда детей. Но сами подростки - из другого времени! Они слушают рок, потихоньку курят и мечтают отнюдь не об обете безбрачия... Словно из времен Диккенса перекочевали в фильм нравы мужской религиозной школы Василия Блаженного (кстати, Диккенс входит в ее программу). Здесь все происходит в соответствии со старинной схемой: преподаватель-садист, практикующий телесные наказания, и учитель-демократ, приходящий ему на смену; директор, чье доброе сердце до поры до времени скрывалось под маской суровости...
Доп. информация: ФИЛЬМ ВПЕРВЫЕ НА ТРЕКЕРЕ.
Оцифровка VHS (личный архив) и получение VHSRip alenavova
Эксклюзив для torrentc. При размещении данного релиза на других сайтах ссылка на автора alenavova обязательна.

Релиз
Качество видео: VHSRip
Формат видео: AVI
Видео: 528x368 (1.43:1), 25 fps, XviD MPEG-4 ~823 kbps avg, 0.17 bit/pixel
Аудио: 48 kHz, MPEG Layer 3, 2 ch, ~128.00 kbps avg

MediaInfo

Помогите нам небеса - Heaven Help Us [Rip by alenavova] fix.avi
Format : AVI
Format/Info : Audio Video Interleave
File size : 698 MiB
Duration : 1h 41mn
Overall bit rate : 961 Kbps
Video
ID : 0
Format : MPEG-4 Visual
Format profile : Advanced Simple@L5
Format settings, BVOP : 1
Format settings, QPel : No
Format settings, GMC : No warppoints
Format settings, Matrix : Default (MPEG)
Codec ID : XVID
Codec ID/Hint : XviD
Duration : 1h 41mn
Bit rate : 824 Kbps
Width : 528 pixels
Height : 368 pixels
Display aspect ratio : 1.435
Frame rate : 25.000 fps
Color space : YUV
Chroma subsampling : 4:2:0
Bit depth : 8 bits
Scan type : Progressive
Compression mode : Lossy
Bits/(Pixel*Frame) : 0.170
Stream size : 598 MiB (86%)
Writing library : XviD 1.2.0.dev47 (UTC 2006-11-01)
Audio
ID : 1
Format : MPEG Audio
Format version : Version 1
Format profile : Layer 3
Mode : Joint stereo
Mode extension : MS Stereo
Codec ID : 55
Codec ID/Hint : MP3
Duration : 1h 41mn
Bit rate mode : Constant
Bit rate : 128 Kbps
Channel(s) : 2 channels
Sampling rate : 48.0 KHz
Compression mode : Lossy
Stream size : 93.0 MiB (13%)
Alignment : Aligned on interleaves
Interleave, duration : 40 ms (1.00 video frame)
Interleave, preload duration : 504 ms
Writing library : LAME

Скриншоты




[torrentc.info]_torrent-4534827.torrent
Торрент: Зарегистрирован ·  [ 2017-02-14 13:48 ] ·  e64ce195f1684e0a5746c7490d4eb4617ced4c86

14 KB

Статус: проверено
Скачан: 0 раз
Размер: 698 MB
Оценка: 
(Голосов: 0)
Сказали спасибо: 0  Спасибо
Похожие темы
[Профиль]    [ЛС]
Показать сообщения:    
Ответить на тему

Текущее время: Сегодня 22:36

Часовой пояс: GMT + 7



Вы не можете начинать темы
Вы не можете отвечать на сообщения
Вы не можете редактировать свои сообщения
Вы не можете удалять свои сообщения
Вы не можете голосовать в опросах
Вы не можете прикреплять файлы к сообщениям
Вы можете скачивать файлы