Последний бой Шанго / Shango, la pistola infallibile (Эдуардо Мулагрия / Edoardo Mulargia) [1970, Италия, боевик, драма, вестерн, DVDRip-AVC] VO (Артем Мосин - Щепачев) + Sub Eng Rus (Свен Железнов) + Original Ita

Ответить на тему
Статистика раздачи [Обновить пиров]
Размер:  1.52 GB   |    Зарегистрирован:  1 год 9 месяцев   |    Скачан:  0 раз

Полного источника не было: Никогда

 
   
 
 
 
Автор Сообщение

torrentc.info

Создавать темы 14-Фев-2017 13:48

[Цитировать]

Последний бой Шанго / Shango, la pistola infallibile
Страна: Италия
Студия: Produzioni Atlas Consorziate (P.A.C.), Società Europea Produzioni Associate Cinematografiche (SEPAC)
Жанр: боевик, драма, вестерн
Год выпуска: 1970
Продолжительность: 01:22:50
Перевод: Одноголосый закадровый - Артем Мосин - Щепачев
Cубтитры: английские, русские(Свен Железнов)
Оригинальная аудиодорожка: итальянский
Режиссер: Эдуардо Мулагрия / Edoardo Mulargia (as Edward G. Muller)
В ролях: Энтони Штеффен, Эдуардо Фахардо, Морис Поли, Барбара Нелли, Валерио Фьораванти, Аттилио Доттезио, Массимо Кароччи, Спартако Конверси, Лиана Дель Бальцо, Анджело Десси ...
Описание: Война между Севером и Югом закончилась. Но в затерянной среди песков мексиканской деревне бои продолжаются. Техасский рейнджер Шанго пытается положить смертям конец. С каждой новой попыткой количество трупов вокруг него растет в геометрической прогрессии.
Доп. информация: Рип сделан из этого [url=viewtopic.php?t=5348260]DVD9[/url]
.-- --Фильм переведен и озвучен специально для: 7букв Вестерн / группа Джесси Джеймса
Отдельная благодарность [url=profile.php?mode=viewprofile&u=40632995]Alassea[/url] за предоставленную русскую звуковую дорожку и субтитры.
Перевод: Свен Железнов.
Закадровый текст: Артем Мосин - Щепачев.--Shango, la pistola infallibile_(1970)_DVDRip-AVC_Sample_.mkv--Рип закодирован в режиме CRF 19.9, уложиться в желаемый размер [1.46 Гб] не получилось.--Качество видео: DVDRip-AVC
Формат видео: MKV
Видео: x264, 720x440@1024x440, 2.35:1, 25.000 fps, 2 247 kbit/s, Progressive, 0.284 Bits/(Pixel*Frame)
Аудио 1: 48 kHz, AC3 Dolby Digital, 2/0 (L,R) ch, ~192 kbps, Русский
Аудио 2: 48 kHz, AC3 Dolby Digital, 2/0 (L,R) ch, ~192 kbps, Итальянский
Формат субтитров: softsub (SRT)

264_log

---[Information] [22-Jan-2017 13:58:11] raw [info]: 720x440p 64:45 @ 25/1 fps (cfr)
---[Information] [22-Jan-2017 13:58:11] x264 [info]: using SAR=64/45
---[Information] [22-Jan-2017 13:58:11] x264 [info]: using cpu capabilities: MMX2 SSE2Fast SSSE3 SSE4.2 AVX
---[Information] [22-Jan-2017 13:58:11] x264 [info]: profile High, level 4.1
---[Information] [22-Jan-2017 21:19:43] x264 [info]: frame I:806 Avg QP:21.31 size: 29933
---[Information] [22-Jan-2017 21:19:43] x264 [info]: frame P:24218 Avg QP:21.80 size: 18517
---[Information] [22-Jan-2017 21:19:43] x264 [info]: frame B:99227 Avg QP:22.55 size: 9305
---[Information] [22-Jan-2017 21:19:43] x264 [info]: consecutive B-frames: 1.5% 2.3% 5.0% 20.1% 10.7% 31.0% 7.0% 10.5% 3.4% 2.4% 1.9% 3.5% 0.7%
---[Information] [22-Jan-2017 21:19:43] x264 [info]: mb I I16..4: 14.1% 71.2% 14.7%
---[Information] [22-Jan-2017 21:19:43] x264 [info]: mb P I16..4: 6.1% 23.6% 4.3% P16..4: 45.3% 14.3% 4.4% 0.9% 0.1% skip: 1.1%
---[Information] [22-Jan-2017 21:19:43] x264 [info]: mb B I16..4: 2.4% 5.2% 0.8% B16..8: 29.9% 14.3% 2.1% direct:17.9% skip:27.5% L0:35.8% L1:30.3% BI:33.8%
---[Information] [22-Jan-2017 21:19:43] x264 [info]: 8x8 transform intra:65.9% inter:60.6%
---[Information] [22-Jan-2017 21:19:43] x264 [info]: direct mvs spatial:100.0% temporal:0.0%
---[Information] [22-Jan-2017 21:19:43] x264 [info]: coded y,uvDC,uvAC intra: 84.6% 73.5% 35.1% inter: 48.3% 29.7% 5.4%
---[Information] [22-Jan-2017 21:19:43] x264 [info]: i16 v,h,dc,p: 14% 8% 44% 35%
---[Information] [22-Jan-2017 21:19:43] x264 [info]: i8 v,h,dc,ddl,ddr,vr,hd,vl,hu: 29% 9% 22% 5% 6% 9% 4% 9% 7%
---[Information] [22-Jan-2017 21:19:43] x264 [info]: i4 v,h,dc,ddl,ddr,vr,hd,vl,hu: 30% 10% 20% 6% 7% 10% 5% 7% 5%
---[Information] [22-Jan-2017 21:19:43] x264 [info]: i8c dc,h,v,p: 28% 26% 26% 20%
---[Information] [22-Jan-2017 21:19:43] x264 [info]: Weighted P-Frames: Y:29.4% UV:18.0%
---[Information] [22-Jan-2017 21:19:43] x264 [info]: ref P L0: 45.3% 10.1% 18.6% 7.4% 5.8% 3.7% 3.7% 2.1% 2.4% 0.8% 0.0%
---[Information] [22-Jan-2017 21:19:43] x264 [info]: ref B L0: 72.6% 14.1% 5.2% 3.0% 2.0% 1.8% 1.0% 0.3%
---[Information] [22-Jan-2017 21:19:43] x264 [info]: ref B L1: 95.0% 5.0%
---[Information] [22-Jan-2017 21:19:43] x264 [info]: kb/s:2246.84
---[Information] [22-Jan-2017 21:19:43] encoded 124251 frames, 4.69 fps, 2246.84 kb/s

MediaInfo

General
Unique ID : 237980218964307128448088372661158894037 (0xB30952AF4F5F394C963897B0063B59D5)
Complete name : I:\111\Shango, la pistola infallibile_(1970)_DVDRip-AVC_.mkv
Format : Matroska
Format version : Version 4 / Version 2
File size : 1.52 GiB
Duration : 1 h 22 min
Overall bit rate : 2 633 kb/s
Encoded date : UTC 2017-01-28 04:24:49
Writing application : mkvmerge v9.5.0 ('Quiet Fire') 64bit
Writing library : libebml v1.3.4 + libmatroska v1.4.5
Video
ID : 1
Format : AVC
Format/Info : Advanced Video Codec
Format profile : High@L4.1
Format settings, CABAC : Yes
Format settings, ReFrames : 9 frames
Codec ID : V_MPEG4/ISO/AVC
Duration : 1 h 22 min
Bit rate : 2 247 kb/s
Width : 720 pixels
Height : 440 pixels
Display aspect ratio : 2.35:1
Frame rate mode : Constant
Frame rate : 25.000 FPS
Color space : YUV
Chroma subsampling : 4:2:0
Bit depth : 8 bits
Scan type : Progressive
Bits/(Pixel*Frame) : 0.284
Stream size : 1.30 GiB (85%)
Title : Shango, la pistola infallibile_(1970)_DVDRip-AVC_[Ripped_by_rjhlb777]
Writing library : x264 core 148 r2744 b97ae06
Encoding settings : cabac=1 / ref=9 / deblock=1:-3:-3 / analyse=0x3:0x133 / me=umh / subme=11 / psy=0 / mixed_ref=0 / me_range=24 / chroma_me=1 / trellis=2 / 8x8dct=1 / cqm=0 / deadzone=6,6 / fast_pskip=0 / chroma_qp_offset=0 / threads=6 / lookahead_threads=1 / sliced_threads=0 / nr=0 / decimate=0 / interlaced=0 / bluray_compat=0 / constrained_intra=0 / bframes=12 / b_pyramid=2 / b_adapt=2 / b_bias=0 / direct=3 / weightb=1 / open_gop=0 / weightp=2 / keyint=250 / keyint_min=25 / scenecut=40 / intra_refresh=0 / rc_lookahead=60 / rc=crf / mbtree=0 / crf=19.9 / qcomp=0.80 / qpmin=0 / qpmax=69 / qpstep=4 / vbv_maxrate=62500 / vbv_bufsize=78125 / crf_max=0.0 / nal_hrd=none / filler=0 / ip_ratio=1.10 / pb_ratio=1.10 / aq=1:0.50
Language : Italian
Default : Yes
Forced : No
Audio #1
ID : 2
Format : AC-3
Format/Info : Audio Coding 3
Mode extension : CM (complete main)
Format settings, Endianness : Big
Codec ID : A_AC3
Duration : 1 h 22 min
Bit rate mode : Constant
Bit rate : 192 kb/s
Channel(s) : 2 channels
Channel positions : Front: L R
Sampling rate : 48.0 kHz
Frame rate : 31.250 FPS (1536 spf)
Bit depth : 16 bits
Compression mode : Lossy
Stream size : 114 MiB (7%)
Title : VO (Артем Мосин - Щепачев)
Language : Russian
Default : Yes
Forced : No
Audio #2
ID : 3
Format : AC-3
Format/Info : Audio Coding 3
Mode extension : CM (complete main)
Format settings, Endianness : Big
Codec ID : A_AC3
Duration : 1 h 22 min
Bit rate mode : Constant
Bit rate : 192 kb/s
Channel(s) : 2 channels
Channel positions : Front: L R
Sampling rate : 48.0 kHz
Frame rate : 31.250 FPS (1536 spf)
Bit depth : 16 bits
Compression mode : Lossy
Stream size : 114 MiB (7%)
Title : Original
Language : Italian
Default : No
Forced : No
Text #1
ID : 4
Format : UTF-8
Codec ID : S_TEXT/UTF8
Codec ID/Info : UTF-8 Plain Text
Duration : 1 h 20 min
Bit rate : 38 b/s
Count of elements : 454
Stream size : 23.1 KiB (0%)
Title : RUS_(Свен Железнов)
Language : Russian
Default : No
Forced : No
Text #2
ID : 5
Format : UTF-8
Codec ID : S_TEXT/UTF8
Codec ID/Info : UTF-8 Plain Text
Duration : 1 h 17 min
Bit rate : 25 b/s
Count of elements : 462
Stream size : 14.6 KiB (0%)
Title : ENG (DVD9 R2)
Language : English
Default : No
Forced : No
Menu
00:00:00.000 : it:Chapter 1
00:02:18.040 : it:Chapter 2
00:06:31.760 : it:Chapter 3
00:12:01.920 : it:Chapter 4
00:17:55.440 : it:Chapter 5
00:20:27.520 : it:Chapter 6
00:25:31.360 : it:Chapter 7
00:32:22.520 : it:Chapter 8
00:35:31.560 : it:Chapter 9
00:42:12.480 : it:Chapter 10
00:47:03.320 : it:Chapter 11
00:54:06.640 : it:Chapter 12
00:58:29.120 : it:Chapter 13
01:07:39.680 : it:Chapter 14
01:13:19.840 : it:Chapter 15
01:20:45.080 : it:Chapter 16
01:22:48.960 : it:Chapter 17


[torrentc.info]_torrent-5348280.torrent
Торрент: Зарегистрирован ·  [ 2017-02-14 13:48 ] ·  7162e985792df55d91fd8b38ff8c6e2581c8a12e

16 KB

Статус: проверено
Скачан: 0 раз
Размер: 1.52 GB
Оценка: 
(Голосов: 0)
Сказали спасибо: 0  Спасибо
Похожие темы
[Профиль]    [ЛС]
Показать сообщения:    
Ответить на тему

Текущее время: Сегодня 22:34

Часовой пояс: GMT + 7



Вы не можете начинать темы
Вы не можете отвечать на сообщения
Вы не можете редактировать свои сообщения
Вы не можете удалять свои сообщения
Вы не можете голосовать в опросах
Вы не можете прикреплять файлы к сообщениям
Вы можете скачивать файлы