Закон Мерфи / Murphy\'s Law (Дж. Ли Томпсон / J. Lee Thompson) [1986, США, детектив, триллер, боевик, криминал, BDRip] AVO (Андрей Гаврилов) + Original Eng

Ответить на тему
Статистика раздачи [Обновить пиров]
Размер:  1.45 GB   |    Зарегистрирован:  1 год 9 месяцев   |    Скачан:  0 раз

Полного источника не было: Никогда

 
   
 
 
 
Автор Сообщение

torrentc.info

Создавать темы 14-Фев-2017 13:48

[Цитировать]

Закон Мерфи / Murphy's Law
Страна: США
Жанр: детектив, триллер, боевик, криминал
Год выпуска: 1986
Продолжительность: 01:40:30
Перевод: Авторский (одноголосый закадровый) Андрей Гаврилов
Cубтитры: нет
Оригинальная аудиодорожка: Английский
Режиссер: Дж. Ли Томпсон / J. Lee Thompson
В ролях: Чарльз Бронсон, Кэтлин Уилхойт, Кэрри Снодгресс, Роберт Ф. Лайонс, Ричард Романус, Энджел Томпкинс, Билл Хендерсон, Джеймс Луизи, Клиффорд А. Пеллоу, Джанет МакЛахлан
Описание: Джек Мерфи, детектив из Лос-Анжелеса, крутой парень, немногословный, суровый и решительный. Он становится мишенью ... женщины-убийцы, поклявшейся уничтожить его и действующей, как настоящий профессионал. Вскоре выясняется, что не только она желает Мерфи смерти: - за ним начинает охотиться гангстерская группировка ...
Сэмпл: http://multi-up.com/1137711
Качество видео: BDRip (Исходник Blu-Ray Remux (1080p) / torrentc)
Формат видео: AVI
Видео: XviD 73, 720x384, (1,85:1), 23,976 fps, 1662 Кбит/с, 0.25 bit/pixel
Аудио: Русский (АС3, 2 ch (Front: L R), 48,0 KHz, 192 Kbps)
Аудио 2: Английский (АС3, 2 ch (Front: L R), 48,0 KHz, 192 Kbps)

MediaInfo

Общее
Полное имя : F:\Видеофильмы\В и д е о\Закон Мэрфи (боевик криминал 1986 год).avi
Формат : AVI
Формат/Информация : Audio Video Interleave
Размер файла : 1,45 Гбайт
Продолжительность : 1 ч. 40 м.
Общий поток : 2060 Кбит/сек
Программа кодирования : VirtualDubMod 1.5.10.3 | www.virtualdub-fr.org || (build 2550/release)
Библиотека кодирования : VirtualDubMod build 2550/release
Видео
Идентификатор : 0
Формат : MPEG-4 Visual
Профиль формата : Advanced Simple@L5
Параметр BVOP формата : 2
Параметр QPel формата : Нет
Параметр GMC формата : Без точки перехода
Параметр матрицы формата : Выборочная
Идентификатор кодека : XVID
Идентификатор кодека/Подсказка : XviD
Продолжительность : 1 ч. 40 м.
Битрейт : 1662 Кбит/сек
Ширина : 720 пикселей
Высота : 384 пикселя
Соотношение сторон : 1,85:1
Частота кадров : 23,976 (23976/1000) кадра/сек
Цветовое пространство : YUV
Субдискретизация насыщенности : 4:2:0
Битовая глубина : 8 бит
Тип развёртки : Прогрессивная
Метод сжатия : С потерями
Бит/(Пиксели*Кадры) : 0.251
Размер потока : 1,17 Гбайт (81%)
Библиотека кодирования : XviD 73
Аудио #1
Идентификатор : 1
Формат : AC-3
Формат/Информация : Audio Coding 3
Расширение режима : CM (complete main)
Параметр Endianness формата : Big
Идентификатор кодека : 2000
Продолжительность : 1 ч. 40 м.
Вид битрейта : Постоянный
Битрейт : 192 Кбит/сек
Каналы : 2 канала
Расположение каналов : Front: L R
Частота : 48,0 КГц
Частота кадров : 31,250 кадров/сек (1536 spf)
Метод сжатия : С потерями
Размер потока : 138 Мбайт (9%)
Выравнивание : Разделение по промежуткам
Продолжительность промежутка : 42 мс. (1,00 видеокадр)
Время предзагрузки промежутка : 500 мс.
Аудио #2
Идентификатор : 2
Формат : AC-3
Формат/Информация : Audio Coding 3
Расширение режима : CM (complete main)
Параметр Endianness формата : Big
Идентификатор кодека : 2000
Продолжительность : 1 ч. 40 м.
Вид битрейта : Постоянный
Битрейт : 192 Кбит/сек
Каналы : 2 канала
Расположение каналов : Front: L R
Частота : 48,0 КГц
Частота кадров : 31,250 кадров/сек (1536 spf)
Метод сжатия : С потерями
Размер потока : 138 Мбайт (9%)
Выравнивание : Разделение по промежуткам
Продолжительность промежутка : 42 мс. (1,00 видеокадр)
Время предзагрузки промежутка : 500 мс.

Скриншот c названием фильма

Скриншоты



[torrentc.info]_torrent-5348345.torrent
Торрент: Зарегистрирован ·  [ 2017-02-14 13:48 ] ·  6f7dc19eb50e9d6e5b9e821daa3497efbfa202a3

15 KB

Статус: проверено
Скачан: 0 раз
Размер: 1.45 GB
Оценка: 
(Голосов: 0)
Сказали спасибо: 0  Спасибо
Похожие темы
[Профиль]    [ЛС]
Показать сообщения:    
Ответить на тему

Текущее время: Сегодня 06:07

Часовой пояс: GMT + 7



Вы не можете начинать темы
Вы не можете отвечать на сообщения
Вы не можете редактировать свои сообщения
Вы не можете удалять свои сообщения
Вы не можете голосовать в опросах
Вы не можете прикреплять файлы к сообщениям
Вы можете скачивать файлы