Тихая ночь, мертвая ночь 2 / Тихая ночь, смертельная ночь 2 / Silent Night, Deadly Night Part 2 (Ли Харри / Lee Harry) [1987, США, Триллер, ужасы, VHSRip] [Full Screen] AVO (Андрей Дольский) + Sub Dut

Ответить на тему
Статистика раздачи [Обновить пиров]
Размер:  1.37 GB   |    Зарегистрирован:  1 год 9 месяцев   |    Скачан:  0 раз

Полного источника не было: Никогда

 
   
 
 
 
Автор Сообщение

torrentc.info

Создавать темы 14-Фев-2017 13:48

[Цитировать]

Тихая ночь, мертвая ночь 2 / Тихая ночь, смертельная ночь 2 / Silent Night, Deadly Night Part 2
[Full Screen]
«The nightmare is about to begin... again!»
Страна: США
Жанр: Триллер, ужасы, слэшер
Год выпуска: 1987
Продолжительность: 01:25:18
Перевод: Авторский (одноголосый закадровый) Андрей Дольский
Cубтитры: нидерландские
Оригинальная аудиодорожка: нет
Режиссер: Ли Харри / Lee Harry
В ролях: Эрик Фримэн /Eric Freeman/, Джеймс Л. Ньюмэн /James Newman/, Элизабет Кайтэн /Elizabeth Kaitan/, Джин Миллер /Jean Miller/, Даррел Гилбо /Darrel Guilbeau/, Брайан Майкл Хенли /Brian Michael Henley/.
Описание: 1. Аннотация от alenavova
Продолжение фильма "Тихая ночь, мертвая ночь", в котором свихнувшийся маньяк Билл Колдуэлл, одевшись в костюм Санта Клауса, гонялся с топором за мирным населением с воплями "шалуны!" и "наказывал" его. У Билла был младший брат Ричард, который в начале 2-ой серии сидит в психбольнице и рассказывает доктору Блуму, как же он сам стал маньяком. Перед нами почти пол-фильма проходят кадры из 1-ой серии (в них, кстати, появляются известные актрисы Линни Куигли и Тара Бакмэн), но потом Ричард вырывается на свободу и, - вот он, Санта Клаус... Эффектно снятое кино с хорошими каскадерскими трюками (знаменитый Спиро Разатос постарался!). Другое дело, что оно будит дикие, первобытные, кровожадные, животные инстинкты. Насколько это оправдано с моральной точки зрения?
2. Вторая часть начинается с рассказа Рики (младшего брата маньяка) о Билли и о том, как он попал в психушку - обо всём этом он ведает психиатру. А у него, как вы понимаете, тоже крышняк поехал на дедоморозовской почве, ведь он стал свидетелем смерти брата. Досказав ему свою печальную историю, он преспокойно убил участливого психиатра. И взявшись за любимое оружие Дедов Морозов, топор, пошёл вершить правосудие, благо на дворе Рождество...
Все пересуды по поводу того, что Коскарелли делал очень много ретроспективных вставок из предыдущих трёх ФАНТАЗМОВ в четвёртой части, сразу затихают по сравнению с тем, как добрую половину этого фильма занимает ретро из первой части, причём не показанное урывками, а так обстоятельно, словно авторы заботились о тех, кто не видел первой части. На самом деле при этом они сэкономили очень большое количество денег, зато на зрительских нервах отыгрались. Когда Рики пошёл всех крошить, тогда стало на сердце несколько полегче, но злость и непонимание остались. Эрик Фриман, исполняющий роль Рики, явно переигрывает, изображая злодея. Смотрите будущие актёры, чтобы не повторить его ошибку. Убийства здесь не слишком изобретательны, но они есть - например, протыкание насквозь зонтиком с последующим его раскрытием через пронзённый труп. (radu)
Доп. информация: Оцифровка VHS (личный архив) и получение VHSRip alenavova
Эксклюзив для torrentc. При размещении данного релиза на других сайтах ссылка на автора
Релиз
Сэмпл: https://yadi.sk/i/0Rj5ZJRI3BUHwe
Качество видео: VHSRip
Формат видео: AVI
Видео: 704x544 (1.29:1), 25 fps, XviD build 73 ~2092 kbps avg, 0.22 bit/pixel
Аудио: 48 kHz, AC3 Dolby Digital, 2/0 (L,R) ch, ~192 kbps
Формат субтитров: hardsub (неотключаемые)

MediaInfo

Тихая ночь, мертвая ночь - 2 - Silent Night, Deadly Night Part 2 [by alenavova].avi
Format : AVI
Format/Info : Audio Video Interleave
File size : 1.37 GiB
Duration : 1 h 25 min
Overall bit rate : 2 294 kb/s
Movie name : Тихая ночь, мертвая ночь - 2 - Silent Night, Deadly Night Part 2 [by alenavova]
Director : by alenavova
Writing application : VirtualDubMod 1.5.10.3 | www.virtualdub-fr.org || (build 2550/release)
Copyright : Edich2
Comment : torrentc
Video
ID : 0
Format : MPEG-4 Visual
Format profile : Advanced Simple@L5
Format settings, BVOP : 1
Format settings, QPel : No
Format settings, GMC : No warppoints
Format settings, Matrix : Custom
Codec ID : XVID
Codec ID/Hint : XviD
Duration : 1 h 25 min
Bit rate : 2 092 kb/s
Width : 704 pixels
Height : 544 pixels
Display aspect ratio : 1.294
Frame rate : 25.000 FPS
Color space : YUV
Chroma subsampling : 4:2:0
Bit depth : 8 bits
Scan type : Progressive
Compression mode : Lossy
Bits/(Pixel*Frame) : 0.219
Stream size : 1.25 GiB (91%)
Writing library : XviD 73
Audio
ID : 1
Format : AC-3
Format/Info : Audio Coding 3
Mode extension : CM (complete main)
Format settings, Endianness : Big
Codec ID : 2000
Duration : 1 h 25 min
Bit rate mode : Constant
Bit rate : 192 kb/s
Channel(s) : 2 channels
Channel positions : Front: L R
Sampling rate : 48.0 kHz
Frame rate : 31.250 FPS (1536 spf)
Compression mode : Lossy
Stream size : 117 MiB (8%)
Alignment : Split accross interleaves
Interleave, duration : 40 ms (1.00 video frame)
Interleave, preload duratio : 500 ms

Скриншоты




[torrentc.info]_torrent-5348607.torrent
Торрент: Зарегистрирован ·  [ 2017-02-14 13:48 ] ·  57526b629a1230feb106b459537a2c9345ed41fe

14 KB

Статус: проверено
Скачан: 0 раз
Размер: 1.37 GB
Оценка: 
(Голосов: 0)
Сказали спасибо: 0  Спасибо
Похожие темы
[Профиль]    [ЛС]
Показать сообщения:    
Ответить на тему

Текущее время: Сегодня 07:16

Часовой пояс: GMT + 7



Вы не можете начинать темы
Вы не можете отвечать на сообщения
Вы не можете редактировать свои сообщения
Вы не можете удалять свои сообщения
Вы не можете голосовать в опросах
Вы не можете прикреплять файлы к сообщениям
Вы можете скачивать файлы