Мой милый Робинзон / Mein lieber Robinson (Роланд Грэф / Roland Gräf) [1971, Германия (ГДР), Драма, DVDRip-AVC] Dub (к/ст им.М.Горького) + Original Ger

Ответить на тему
Статистика раздачи [Обновить пиров]
Размер:  1.46 GB   |    Зарегистрирован:  1 год 7 месяцев   |    Скачан:  0 раз

Полного источника не было: Никогда

 
   
 
 
 
Автор Сообщение

torrentc.info

Создавать темы 14-Фев-2017 13:48

[Цитировать]

Мой милый Робинзон / Mein lieber Robinson
Жанр: Драма
Страна: Германия (ГДР)
Студия: Deutsche Film (DEFA)
Год выпуска: 1971
Продолжительность: 01:18:00
Перевод: Профессиональный (дублированный) - к/ст им.М.Горького
Cубтитры: нет
Оригинальная аудиодорожка: немецкий
Режиссер: Роланд Грэф / Roland Gräf
В ролях:
Ян Березка / Jan Bereska ... Петер Грунер, «Робинзон» / Peter Gruner - дублирует Борис Шинкарёв
Габриель Зимон / Gabriele Simon ... Карин, подруга Петера / Karin - дублирует Галина Булкина
Альфред Мюллер / Alfred Müller ... Отец Петера / Valter Gruner - дублирует Алексей Сафонов
Дитер Франке / Dieter Franke ... Адам Ковальски, напарник Петера / Adam Kowalski - дублирует Юрий Саранцев
Карин Грегорек / Karin Gregorek ... Барбара / Barbara - дублирует Лариса Данилина
Кэте Райхель / Käthe Reichel ... Каринс Виртин / Karins Wirtin
Лотар Тарелкин / Lothar Tarelkin ... Дитер, друг Петера - дублирует Станислав Захаров
Рудольф Флек / Rudolf Fleck ... Пожилой человек / Älterer Mann - дублирует Константин Тыртов
Марга Легаль / Marga Legal ... Старая больная женщина / Alte kranke Frau
Гюнтер Вольф / Günter Wolf ... Мартин / Martin
Ингрид Франке / Ingrid Franke ... Госпожа Ковальски / Frau Kowalski
Кордула Дэне /Kordula Dähne ... Беременная / Schwangere Frau
Юрген Клукерт / Jürgen Kluckert ... Муж беременной / Mann der schwangeren Frau
Кэте Бонерт / Käthe Bohnert
Описание: По произведению Христель Грэф (Christel Gräf).
17-летний мечтатель Петер, прозванный в детстве Робинзоном, учится в вечерней школе и работает на "Скорой помощи". Во время одного из своих выездов он познакомился с Карин, полюбил её. Год спустя у них появился ребёнок. Своему овдовевшему отцу Петер долго не решается сообщить о существовании новой семьи. В конце концов Карин требует покончить с двусмысленностью её положения. Но Петер смог рассказать всё только своему другу. И лишь когда отец приезжает к Карин, он узнаёт правду…
Дополнительная информация: Релиз:
Автор рипа: pmv
Исходник найден в сети.
Большое спасибо за:
- аудиодорожку с советским дубляжем – dsz, leonila (ФЕНИКС)
* Оригинальная немецкая версия фильма. В советском прокате фильм демонстрировался без купюр, но только на черно-белой пленке. В оригинальной версии фильма имеется несколько фрагментов, выполненных в цвете, как было задумано режиссёром.
IMDb = - (-) - http://www.imdb.com/title/tt0067416/
Кинопоиск = - (3) - http://www.kinopoisk.ru/film/182071/
ПРОСЬБА к СКАЧАВШИМ. НЕ УХОДИТЕ С РАЗДАЧИ, ПОМОГИТЕ ДРУГИМ СКАЧАТЬ!!!
ВНИМАНИЕ!!! РИП ФОРМАТА mkv (кодек H.264) ВОСПРОИЗВОДИТСЯ НЕ НА ВСЕХ БЫТОВЫХ ВИДЕОПЛЕЕРАХ!!!
Качество видео: DVDRip-AVC
Формат видео: MKV
Видео: AVC (H264), 704@757x568 (4:3), 25 fps, 2300 Kbps, 0.230 Bits/Pixel
Аудио #1: AC3, 48 KHz, stereo (2 ch), 192 Kbps – Советский дубляж
Аудио #2: AC3, 48 KHz, stereo (2 ch), 192 Kbps – немецкий

MediaInfo

General
Unique ID : 224792486496076654445417992046411305477 (0xA91D75462596E385AE5A5388B6DCD205)
Complete name : D:\torrents\Mein lieber Robinson (1971, rus_dub + ger).mkv
Format : Matroska
Format version : Version 4 / Version 2
File size : 1.46 GiB
Duration : 1h 18mn
Overall bit rate : 2 685 Kbps
Encoded date : UTC 2017-01-28 00:33:55
Writing application : mkvmerge v9.8.0 ('Kuglblids') 64bit
Writing library : libebml v1.3.4 + libmatroska v1.4.5
DURATION : 01:17:52.064000000
NUMBER_OF_FRAMES : 146002
NUMBER_OF_BYTES : 112129536
_STATISTICS_WRITING_APP : mkvmerge v9.8.0 ('Kuglblids') 64bit
_STATISTICS_WRITING_DATE_UTC : 2017-01-28 00:33:55
_STATISTICS_TAGS : BPS DURATION NUMBER_OF_FRAMES NUMBER_OF_BYTES
Video
ID : 1
Format : AVC
Format/Info : Advanced Video Codec
Format profile : High@L4.1
Format settings, CABAC : Yes
Format settings, ReFrames : 16 frames
Codec ID : V_MPEG4/ISO/AVC
Duration : 1h 18mn
Bit rate : 2 300 Kbps
Width : 704 pixels
Height : 568 pixels
Display aspect ratio : 4:3
Original display aspect ratio : 5:4
Frame rate mode : Constant
Frame rate : 25.000 fps
Color space : YUV
Chroma subsampling : 4:2:0
Bit depth : 8 bits
Scan type : Progressive
Bits/(Pixel*Frame) : 0.230
Stream size : 1.22 GiB (84%)
Writing library : x264 core 146 r2538 121396c
Encoding settings : cabac=1 / ref=16 / deblock=1:0:0 / analyse=0x3:0x133 / me=umh / subme=10 / psy=1 / psy_rd=1.00:0.00 / mixed_ref=1 / me_range=24 / chroma_me=1 / trellis=2 / 8x8dct=1 / cqm=0 / deadzone=21,11 / fast_pskip=1 / chroma_qp_offset=-2 / threads=42 / lookahead_threads=4 / sliced_threads=0 / nr=0 / decimate=1 / interlaced=0 / bluray_compat=0 / constrained_intra=0 / bframes=8 / b_pyramid=2 / b_adapt=2 / b_bias=0 / direct=3 / weightb=1 / open_gop=0 / weightp=2 / keyint=250 / keyint_min=25 / scenecut=40 / intra_refresh=0 / rc_lookahead=60 / rc=2pass / mbtree=1 / bitrate=2300 / ratetol=1.0 / qcomp=0.60 / qpmin=0 / qpmax=69 / qpstep=4 / cplxblur=20.0 / qblur=0.5 / ip_ratio=1.40 / aq=1:1.00
Language : German
Default : Yes
Forced : No
Audio #1
ID : 2
Format : AC-3
Format/Info : Audio Coding 3
Mode extension : CM (complete main)
Format settings, Endianness : Big
Codec ID : A_AC3
Duration : 1h 18mn
Bit rate mode : Constant
Bit rate : 192 Kbps
Channel(s) : 2 channels
Channel positions : Front: L R
Sampling rate : 48.0 KHz
Bit depth : 16 bits
Compression mode : Lossy
Stream size : 107 MiB (7%)
Language : Russian
Default : Yes
Forced : No
Audio #2
ID : 3
Format : AC-3
Format/Info : Audio Coding 3
Mode extension : CM (complete main)
Format settings, Endianness : Big
Codec ID : A_AC3
Duration : 1h 18mn
Bit rate mode : Constant
Bit rate : 192 Kbps
Channel(s) : 2 channels
Channel positions : Front: L R
Sampling rate : 48.0 KHz
Bit depth : 16 bits
Compression mode : Lossy
Stream size : 107 MiB (7%)
Language : German
Default : No
Forced : No

Скриншот c названием фильма

МОИ РАЗДАЧИ НА трекере: [url=tracker.php?rid=27390064]http://torrentc/forum/tracker.php?rid=27390064[/url]


[torrentc.info]_torrent-5348735.torrent
Торрент: Зарегистрирован ·  [ 2017-02-14 13:48 ] ·  250562e45910402c36b4ffbc5c165e6c07b78cf6

15 KB

Статус: проверено
Скачан: 0 раз
Размер: 1.46 GB
Оценка: 
(Голосов: 0)
Сказали спасибо: 0  Спасибо
Похожие темы
[Профиль]    [ЛС]
Показать сообщения:    
Ответить на тему

Текущее время: Сегодня 13:35

Часовой пояс: GMT + 7



Вы не можете начинать темы
Вы не можете отвечать на сообщения
Вы не можете редактировать свои сообщения
Вы не можете удалять свои сообщения
Вы не можете голосовать в опросах
Вы не можете прикреплять файлы к сообщениям
Вы можете скачивать файлы