Вор / Thief (Майкл Манн / Michael Mann) [1981, США, боевик, триллер, драма, криминал, VHSRip] [Full Screen] VO Младокашкин

Ответить на тему
Статистика раздачи [Обновить пиров]
Размер:  1.46 GB   |    Зарегистрирован:  1 год 5 месяцев   |    Скачан:  0 раз

Полного источника не было: Никогда

 
   
 
 
 
Автор Сообщение

torrentc.info

Создавать темы 14-Фев-2017 13:48

[Цитировать]

Вор / Thief
[Full Screen]
«Tonight, his take home pay is $410,000...tax free»
Страна: США
Жанр: боевик, триллер, драма, криминал
Год выпуска: 1981
Продолжительность: 02:02:36
Перевод: Одноголосый закадровый [Младокашкин]
Cубтитры: нет
Режиссер: Майкл Манн / Michael Mann
В ролях: Джеймс Каан, Тьюзди Уэлд, Уилли Нельсон, Джеймс Белуши, Роберт Проски, Том Сигнорелли, Деннис Фарина, Ник Никеас, В.Р. Браун, Норм Тобин
Описание: Джеймс Каан в Роли профессионального грабителя, взломщика сейфов высочайшего класса, работает исключительно самостоятельно. Он очень осторожен, он уже был в тюрьме и больше попадать туда не хочет. Он любит женщину, и она любит его, он рассказал ей о своем прошлом и о своей специальности. Он хочет сделать хороший удар, завязать, жить тихо и спокойно, он хочет усыновить ребенка, так как у его любимой женщины не может быть детей. И вот внешне добрый "дедушка" предоставляет ему шанс заработать много денег, он делает все для Каана, даже находит ему ребенка - в праве усыновления бывшему зэку было отказано. Но Каан должен стать его собственностью и рабом. Чтобы сломать Каана, он приказывает убить его помощника и друга (Белуши) и угрожает жизни его любимой женщины. Но не на того дедуля напал. Он, наверное, "Крестного отца" не смотрел, где Джеймс сыграл Санни Корлеоне. (Иванов М.)
Доп. информация: Оцифровка VHS (личный архив) и получение VHSRip alenavova
Эксклюзив для torrentc. При размещении данного релиза на других сайтах ссылка на автора
Релиз
Сэмпл: https://yadi.sk/i/VgQVn3_O3BWdoW
Качество видео: VHSRip
Формат видео: AVI
Видео: 704x528 (1.33:1), 25 fps, XviD build 73 ~1508 kbps avg, 0.16 bit/pixel
Аудио: 48 kHz, AC3 Dolby Digital, 2/0 (L,R) ch, ~192 kbps

MediaInfo

Вор - Thief [by alenavova].avi
Format : AVI
Format/Info : Audio Video Interleave
File size : 1.46 GiB
Duration : 2 h 2 min
Overall bit rate : 1 710 kb/s
Movie name : Вор - Thief [by alenavova]
Director : by alenavova
Writing application : VirtualDubMod 1.5.10.3 | www.virtualdub-fr.org || (build 2550/release)
Copyright : Edich2
Comment : torrentc
Video
ID : 0
Format : MPEG-4 Visual
Format profile : Advanced Simple@L5
Format settings, BVOP : 1
Format settings, QPel : No
Format settings, GMC : No warppoints
Format settings, Matrix : Custom
Codec ID : XVID
Codec ID/Hint : XviD
Duration : 2 h 2 min
Bit rate : 1 508 kb/s
Width : 704 pixels
Height : 528 pixels
Display aspect ratio : 4:3
Frame rate : 25.000 FPS
Color space : YUV
Chroma subsampling : 4:2:0
Bit depth : 8 bits
Scan type : Progressive
Compression mode : Lossy
Bits/(Pixel*Frame) : 0.162
Stream size : 1.29 GiB (88%)
Writing library : XviD 73
Audio
ID : 1
Format : AC-3
Format/Info : Audio Coding 3
Mode extension : CM (complete main)
Format settings, Endianness : Big
Codec ID : 2000
Duration : 2 h 2 min
Bit rate mode : Constant
Bit rate : 192 kb/s
Channel(s) : 2 channels
Channel positions : Front: L R
Sampling rate : 48.0 kHz
Frame rate : 31.250 FPS (1536 spf)
Compression mode : Lossy
Stream size : 168 MiB (11%)
Alignment : Split accross interleaves
Interleave, duration : 40 ms (1.00 video frame)
Interleave, preload duratio : 500 ms

Скриншоты




[torrentc.info]_torrent-5348745.torrent
Торрент: Зарегистрирован ·  [ 2017-02-14 13:48 ] ·  13084d93933913bf2c05b19f164fbc84b8c9f589

15 KB

Статус: проверено
Скачан: 0 раз
Размер: 1.46 GB
Оценка: 
(Голосов: 0)
Сказали спасибо: 0  Спасибо
Похожие темы
[Профиль]    [ЛС]
Показать сообщения:    
Ответить на тему

Текущее время: Сегодня 01:18

Часовой пояс: GMT + 7



Вы не можете начинать темы
Вы не можете отвечать на сообщения
Вы не можете редактировать свои сообщения
Вы не можете удалять свои сообщения
Вы не можете голосовать в опросах
Вы не можете прикреплять файлы к сообщениям
Вы можете скачивать файлы