Подозрение / Podezření / Podezreni (Иржи Крейчик / Jirí Krejcík) [1973 (1972), Чехословакия, криминальная драма, Telesync > DVD] [Советская прокатная копия] Dub (Горького)

Ответить на тему
Статистика раздачи [Обновить пиров]
Размер:  4.35 GB   |    Зарегистрирован:  1 год 5 месяцев   |    Скачан:  0 раз

Полного источника не было: Никогда

 
   
 
 
 
Автор Сообщение

torrentc.info

Создавать темы 14-Фев-2017 13:48

[Цитировать]

Подозрение / Podezření [Советская прокатная копия]- Страна: Чехословакия
Жанр: криминальная драма
Год выпуска: 1973 (1972)
Продолжительность: 01:27:10-Перевод: Профессиональный (дублированный) - Киностудия им. М. Горького
Cубтитры: нет-Режиссер: Иржи Крейчик / Jirí Krejcík
В ролях: Ярмила Костова, Вацлав Воска, Ладислав Худик, Радослав Брзобогаты, Иржи Адамира, Станислава Бартосова, Даниэла Бартакова, Эва Безедекова, Богумир Мухка, Славка Будинова...- | Релиз: -Описание: Жена иностранного дипломата Клара Борн возвращается в Прагу - город своего детства. Во время войны её отец, как участник Сопротивления, был арестован, а она, 12-летняя девочка, и её мать - отправлены в концлагерь Айдховен в Голландии. Трагическое прошлое продолжает мучить Клару. Видимо с этим и связан был запрос её мужа в Голландию с просьбой дать сведения о начальнике концлагеря Хартвиге Рауфе. Неожиданное исчезновение Борна и последующее выяснение обстоятельств его гибели приводит сотрудников госбезопасности в Праге к мысли о том, что интерес Борна к Айдховену был опасен для кого-то из членов дипломатического корпуса. Клара сама находит преступника среди дипломатов и убивает его, мстя за своих близких, за гибель 25 тысяч ни в чём не повинных людей.-Доп. информация: В промежутке 00:56:26-00:56:53 брак фонограммы - звук полностью отсутствует.-Семпл: http://sendfile.su/1303310-Тип релиза: Telesync
Контейнер: DVD-Video (DVD-5)
Видео: 720x576 (4:3) @ 768x576, 25.000 fps, MPEG-2 Video, ~6287 Kbps, 0.606 bits/pixel
Аудио: Русский, 48.0 KHz, PCM, 1 ch, 768 Kbps

DVDInfo

Title: Подозрение 1973 Dub ГорькогоSize: 4.35 Gb ( 4 561 970,00 KBytes ) - DVD-5Enabled regions: 1, 2, 3, 4, 5, 6, 7, 8
VTS_01 : Play Length: 01:27:10 Video: PAL 4:3 (720x576) VBR Audio: Russian (LinearPCM, 1 ch)

MediaInfo

GeneralComplete name : \Подозрение 1973 Dub Горького\VIDEO_TS\VTS_01_1.VOBFormat : MPEG-PSFile size : 1 024 MiBDuration : 19 min 53 sOverall bit rate mode : VariableOverall bit rate : 7 198 kb/s
VideoID : 224 (0xE0)Format : MPEG VideoFormat version : Version 2Format profile : Main@MainFormat settings, BVOP : YesFormat settings, Matrix : CustomFormat settings, GOP : M=3, N=15Format settings, picture structure : FrameDuration : 19 min 53 sBit rate mode : VariableBit rate : 6 287 kb/sMaximum bit rate : 9 000 kb/sWidth : 720 pixelsHeight : 576 pixelsDisplay aspect ratio : 4:3Frame rate : 25.000 FPSStandard : PALColor space : YUVChroma subsampling : 4:2:0Bit depth : 8 bitsScan type : InterlacedScan order : Top Field FirstCompression mode : LossyBits/(Pixel*Frame) : 0.606Time code of first frame : 00:00:00:00Time code source : Group of pictures headerGOP, Open/Closed : OpenGOP, Open/Closed of first frame : ClosedStream size : 894 MiB (87%)
AudioID : 189 (0xBD)-160 (0xA0)Format : PCMFormat settings, Endianness : BigFormat settings, Sign : SignedMuxing mode : DVD-VideoDuration : 19 min 53 sBit rate mode : ConstantBit rate : 768 kb/sChannel(s) : 1 channelChannel positions : Front: CSampling rate : 48.0 kHzBit depth : 16 bitsStream size : 109 MiB (11%)
MenuDuration : 19 min 53 s
Описание из "Аннотированного каталога фильмов действующего фонда", 1980г.">

Скриншоты Описание из "Аннотированного каталога фильмов действующего фонда", 1980г.




[torrentc.info]_torrent-5348601.torrent
Торрент: Зарегистрирован ·  [ 2017-02-14 13:48 ] ·  5febcbea76729b64ead4f6fc9d54a8dc32f7edfa

23 KB

Статус: проверено
Скачан: 0 раз
Размер: 4.35 GB
Оценка: 
(Голосов: 0)
Сказали спасибо: 0  Спасибо
Похожие темы
[Профиль]    [ЛС]
Показать сообщения:    
Ответить на тему

Текущее время: Сегодня 12:08

Часовой пояс: GMT + 7



Вы не можете начинать темы
Вы не можете отвечать на сообщения
Вы не можете редактировать свои сообщения
Вы не можете удалять свои сообщения
Вы не можете голосовать в опросах
Вы не можете прикреплять файлы к сообщениям
Вы можете скачивать файлы