Мертвая зона / The Dead Zone (Дэвид Кроненберг / David Cronenberg) [1983, США, ужасы, триллер, драма, детектив, HDRip] DVO (НТВ\\NFQ)

Ответить на тему
Статистика раздачи [Обновить пиров]
Размер:  1.46 GB   |    Зарегистрирован:  1 год 5 месяцев   |    Скачан:  0 раз

Полного источника не было: Никогда

 
   
 
 
 
Автор Сообщение

torrentc.info

Создавать темы 14-Фев-2017 13:48

[Цитировать]

Мертвая зона / The Dead Zone
Страна: США
Жанр: ужасы, триллер, драма, детектив
Год выпуска: 1983
Продолжительность: 01:43:43
Перевод: Профессиональный (двухголосый закадровый) / по заказу «Информационно-рекламного агентства NFQ»
Cубтитры: нет
Оригинальная аудиодорожка: нет
Режиссер: Дэвид Кроненберг / David Cronenberg
В ролях: Кристофер Уокен (Christopher Walken / Johnny Smith), Брук Эдамс (Brooke Adams / Sarah Bracknell), Том Скеррит (Tom Skerritt / Sheriff Bannerman), Херберт Лом (Herbert Lom / Dr. Sam Weizak), Энтони Цербе (Anthony Zerbe / Roger Stuart), Коллин Дьюхёрст (Colleen Dewhurst / Henrietta Dodd), Мартин Шин (Martin Sheen / Greg Stillson), Николас Кэмпбелл (Nicholas Campbell / Frank Dodd), Шон Салливан (Sean Sullivan / Herb Smith), Джеки Барроуз (Jackie Burroughs / Vera Smith), Геза Ковач (Géza Kovács / Sonny Elliman), Роберта Уайсс (Roberta Weiss / Alma Frechette), Саймон Крэйг (Simon Craig / Сhris Stuart) и другие.
Описание: Экранизация одноименного романа Стивена Кинга. Это история человека, который после автокатастрофы пять лет пролежал в коме, а, очнувшись, обнаружил в себе уникальные психофизические способности видеть картины прошлого, настоящего и будущего. Пытаясь приспособиться в неуютном окружающем мире, он мучительно ищет ответ на вопрос: использовать ли свои способности во благо людей?

Доп. информация: За видео спасибо [url=profile.php?mode=viewprofile&u=17479128]porhaleks[/url]. Озвучка (NFQ) была записана на VHS в конце 90-х годов с эфира телеканала НТВ.
К сожалению, фильм транслировался в порезаном виде, поэтому в отсутствующие места сделаны шесть вставок из озвучки MVO «Позитив Мультимедиа»: (00:11:26 – 00:11:49 [23 сек.]; 00:24:57 – 00:25:17 [20 сек.]; 00:26:44 – 00:27:08 [24 сек.]; 00:29:57 – 00:30:17 [20 сек.]; 00:33:22 – 00:34:11 [49 сек.]; 00:39:21 – 00:40:56 [1 мин. 35 сек.]).
Сэмпл: Здесь
Качество видео: HDRip [url=viewtopic.php?t=5300626](Видео отсюда)[/url]
Формат видео: AVI
Видео: XviD, 720x400 (16:9) / 23,976 fps / 1808 kbps / 0,262 bit/pixel
Аудио: Russian: AC3 2/0 (L, R) ch, 192 kbps, 48 kHz, 16 bit / двухголосый (НТВ / NFQ)

MediaInfo

Общее
Полное имя : F:\Папка для скачиваний в torrentc\The.Dead.Zone_1983.НDRip.NTV(NFQ).avi
Формат : AVI
Формат/Информация : Audio Video Interleave
Размер файла : 1,46 Гбайт
Продолжительность : 1 ч. 43 м.
Общий поток : 2009 Кбит/сек
Программа кодирования : VirtualDubMod 1.5.10.2 (build 2540/release)
Библиотека кодирования : VirtualDubMod build 2540/release
Видео
Идентификатор : 0
Формат : MPEG-4 Visual
Профиль формата : Advanced Simple@L5
Параметр BVOP формата : 1
Параметр QPel формата : Нет
Параметр GMC формата : Без точки перехода
Параметр матрицы формата : Default (MPEG)
Идентификатор кодека : XVID
Идентификатор кодека/Подсказка : XviD
Продолжительность : 1 ч. 43 м.
Битрейт : 1808 Кбит/сек
Ширина : 720 пикселей
Высота : 400 пикселей
Соотношение сторон : 16:9
Частота кадров : 23,976 кадра/сек
Цветовое пространство : YUV
Субдискретизация насыщенности : 4:2:0
Битовая глубина : 8 бит
Тип развёртки : Прогрессивная
Метод сжатия : С потерями
Бит/(Пиксели*Кадры) : 0.262
Размер потока : 1,31 Гбайт (90%)
Библиотека кодирования : XviD 1.2.0.dev47 (UTC 2006-11-01)
Аудио
Идентификатор : 1
Формат : AC-3
Формат/Информация : Audio Coding 3
Расширение режима : CM (complete main)
Параметр Endianness формата : Big
Идентификатор кодека : 2000
Продолжительность : 1 ч. 43 м.
Вид битрейта : Постоянный
Битрейт : 192 Кбит/сек
Каналы : 2 канала
Расположение каналов : Front: L R
Частота : 48,0 КГц
Битовая глубина : 16 бит
Метод сжатия : С потерями
Размер потока : 142 Мбайт (10%)
Выравнивание : Разделение по промежуткам
Продолжительность промежутка : 42 мс. (1,00 видеокадр)
Время предзагрузки промежутка : 500 мс.
Заголовок : DVO (NTV\NFQ)

Скриншот c названием фильма

Скриншоты



[torrentc.info]_torrent-5348852.torrent
Торрент: Зарегистрирован ·  [ 2017-02-14 13:48 ] ·  28e669d4a43d43c41c785264a3e73e80faee4dae

15 KB

Статус: проверено
Скачан: 0 раз
Размер: 1.46 GB
Оценка: 
(Голосов: 0)
Сказали спасибо: 0  Спасибо
Похожие темы
[Профиль]    [ЛС]
Показать сообщения:    
Ответить на тему

Текущее время: Сегодня 01:01

Часовой пояс: GMT + 7



Вы не можете начинать темы
Вы не можете отвечать на сообщения
Вы не можете редактировать свои сообщения
Вы не можете удалять свои сообщения
Вы не можете голосовать в опросах
Вы не можете прикреплять файлы к сообщениям
Вы можете скачивать файлы