Жена моего отца / La moglie di mio padre / My Father\'s Wife (Андреа Бьянки / Andrea Bianchi) [1976, Италия, драма, DVDRip] VO (ССК+) + Original Eng

Ответить на тему
Статистика раздачи [Обновить пиров]
Размер:  957 MB   |    Зарегистрирован:  1 год 7 месяцев   |    Скачан:  0 раз

Полного источника не было: Никогда

 
   
 
 
 
Автор Сообщение

torrentc.info

Создавать темы 14-Фев-2017 13:48

[Цитировать]

Жена моего отца / La moglie di mio padre / My Father's Wife
Страна: Италия
Жанр: драма
Год выпуска: 1976
Продолжительность: 01:32:33
Перевод: Одноголосый закадровый ССК+
Cубтитры: нет
Оригинальная аудиодорожка: английский
Режиссер: Андреа Бьянки / Andrea Bianchi
В ролях:
Кэррол Бейкер
Адольфо Чели
Феми Бенусси
Дженни Тамбури
Сезаре Барро
Луиджи Пистилли
Габриэлла Джорджелли
Дада Галлотти
Катерина Барберо
Карла Спессато
Описание:
Брак между Лаурой и Антонио трещит по швам. Мужчина явно устал от своей стареющей жены, которая больше не возбуждает его так, как несколько лет назад. Понимая это, женщина страдает в одиночестве, в то время как ее муж, нисколько не скрываясь, проводит время в обществе куда более молодых соперниц. Неожиданную поддержку Лаура получает от сына Антонио от первого брака Клаудио. Но нарушив одиночество своей мачехи, молодой человек стал для нее больше, чем пасынком. Вскоре Лаура поняла, что испытывает к Клаудио самую настоящую страсть…
Доп. информация:
IMDB
http://www.imdb.com/title/tt0074909/
Кинопоиск
https://www.kinopoisk.ru/film/28603/
IMCDB
http://www.imcdb.org/movie.php?id=74909
Сэмпл: http://multi-up.com/1137940
Качество видео: DVDRip
Формат видео: AVI
Видео: XviD, 608 х 320, 1.900, 23.976 fps, 1 048 Kbps
Аудио: MP3, 48.0 KHz, 192 Kbps, 2 channels, русский
Аудио 2: MP3, 48.0 KHz, 192 Kbps, 2 channels, английский

MediaInfo

General
Complete name : G:\MY INFORMATION\ФИЛЬМЫ И КИНО\РАЗДАЧИ НА ДИСКЕ G\Жена моего отца 1976\My Fathers Wife 1976\Жена моего отца 1976.avi
Format : AVI
Format/Info : Audio Video Interleave
File size : 957 MiB
Duration : 1h 32mn
Overall bit rate : 1 446 Kbps
Writing application : VirtualDubMod 1.5.10.2 (build 2540/release)
Writing library : VirtualDubMod build 2540/release
Video
ID : 0
Format : MPEG-4 Visual
Format profile : Simple@L1
Format settings, BVOP : No
Format settings, QPel : No
Format settings, GMC : No warppoints
Format settings, Matrix : Default (H.263)
Codec ID : XVID
Codec ID/Hint : XviD
Duration : 1h 32mn
Bit rate : 1 048 Kbps
Width : 608 pixels
Height : 320 pixels
Display aspect ratio : 1.900
Frame rate : 23.976 fps
Color space : YUV
Chroma subsampling : 4:2:0
Bit depth : 8 bits
Scan type : Progressive
Compression mode : Lossy
Bits/(Pixel*Frame) : 0.225
Stream size : 694 MiB (72%)
Writing library : Lavc53.33.0
Audio #1
ID : 1
Format : MPEG Audio
Format version : Version 1
Format profile : Layer 3
Mode : Joint stereo
Mode extension : MS Stereo
Codec ID : 55
Codec ID/Hint : MP3
Duration : 1h 32mn
Bit rate mode : Constant
Bit rate : 192 Kbps
Channel(s) : 2 channels
Sampling rate : 48.0 KHz
Compression mode : Lossy
Stream size : 127 MiB (13%)
Alignment : Aligned on interleaves
Interleave, duration : 42 ms (1.00 video frame)
Interleave, preload duration : 504 ms
Writing library : LAME3.99r
Encoding settings : -m j -V 4 -q 3 -lowpass 18.6 -b 192
Audio #2
ID : 2
Format : MPEG Audio
Format version : Version 1
Format profile : Layer 3
Mode : Joint stereo
Mode extension : MS Stereo
Codec ID : 55
Codec ID/Hint : MP3
Duration : 1h 32mn
Bit rate mode : Constant
Bit rate : 192 Kbps
Channel(s) : 2 channels
Sampling rate : 48.0 KHz
Compression mode : Lossy
Stream size : 127 MiB (13%)
Alignment : Aligned on interleaves
Interleave, duration : 42 ms (1.00 video frame)
Interleave, preload duration : 504 ms
Writing library : LAME3.99r
Encoding settings : -m j -V 4 -q 2 -lowpass 18.6 -b 192

Скриншот c названием фильма

Мои раздачи на трекере [url=tracker.php?rid=10591342]http://torrentc/forum/tracker.php?rid=10591342[/url]
Релиз:


[torrentc.info]_torrent-5349143.torrent
Торрент: Зарегистрирован ·  [ 2017-02-14 13:48 ] ·  8f09a57f3b3e2ee255fb11a231da23eea8ba4055

38 KB

Статус: проверено
Скачан: 0 раз
Размер: 957 MB
Оценка: 
(Голосов: 0)
Сказали спасибо: 0  Спасибо
Похожие темы
[Профиль]    [ЛС]
Показать сообщения:    
Ответить на тему

Текущее время: Сегодня 06:40

Часовой пояс: GMT + 7



Вы не можете начинать темы
Вы не можете отвечать на сообщения
Вы не можете редактировать свои сообщения
Вы не можете удалять свои сообщения
Вы не можете голосовать в опросах
Вы не можете прикреплять файлы к сообщениям
Вы можете скачивать файлы