Безумие улиц / Forever, Lulu / Crazy Streets (Амос Коллек / Amos Kollek) [1987, США, Комедия, детектив, DVDRip] MVO + AVO (Визгунов) + Original Eng

Ответить на тему
Статистика раздачи [Обновить пиров]
Размер:  1.46 GB   |    Зарегистрирован:  1 год 5 месяцев   |    Скачан:  0 раз

Полного источника не было: Никогда

 
   
 
 
 
Автор Сообщение

torrentc.info

Создавать темы 14-Фев-2017 13:48

[Цитировать]

Безумие улиц / Forever, Lulu / Crazy Streets
Страна: США
Жанр: Комедия, детектив
Год выпуска: 1987
Продолжительность: 01:22:28
Перевод 1: Профессиональный (многоголосый закадровый)
Перевод 2: Авторский (одноголосый закадровый) Визгунов
Cубтитры: нет
Оригинальная аудиодорожка: английский
Режиссер: Амос Коллек / Amos Kollek
В ролях: Ханна Шигулла, Алек Болдуин, Дебора Харри, Энни Голден, Пол Глисон, Др. Рут Вестхаймер, Рэймонд Серра, Джордж КайлОписание: Начинающую писательницу Элен преследуют неудачи, и она решает свести счеты с жизнью. Но вместо этого нечаянно… совершает ограбление, получив в качестве трофея дорогую шубу.
В кармане шубы она находит фотографию загадочной блондинки по имени Лулу и записную книжку с адресом. Идя по следам Лулу, Элен и ее новый друг — крутой полицейский Бад оказываются вовлечены в историю, связанную с гангстерами, торговлей наркотиками и убийствами.
Качество видео: DVDRip [[url=viewtopic.php?t=2876833]DVD5[/url]]
Формат видео: AVI
Видео: 704x528 (4:3), 25 fps, XviD MPEG-4 ~1900 kbps avg
Аудио 1: AC3 Dolby Digital, 48 kHz, 2/0 (L,R) ch, ~192.00 kbps [RUS, MVO]
Аудио 2: AC3 Dolby Digital, 48 kHz, 2/0 (L,R) ch, ~192.00 kbps [RUS, AVO]
Аудио 3: AC3 Dolby Digital, 48 kHz, 2/0 (L,R) ch, ~192.00 kbps [ENG, Original]

MediaInfo

ОбщееПолное имя : D:\FILMS\Forever, Lulu 1987 DVDRip.aviФормат : AVIФормат/Информация : Audio Video InterleaveРазмер файла : 1,46 ГбайтПродолжительность : 1 ч. 22 м.Общий поток : 2536 Кбит/секПрограмма кодирования : VirtualDubMod 1.5.10.2 (build 2542/release)Библиотека кодирования : VirtualDubMod build 2542/release
ВидеоИдентификатор : 0Формат : MPEG-4 VisualПрофиль формата : Advanced Simple@L5Параметр BVOP формата : 2Параметр QPel формата : НетПараметр GMC формата : Без точки переходаПараметр матрицы формата : ВыборочнаяИдентификатор кодека : XVIDИдентификатор кодека/Подсказка : XviDПродолжительность : 1 ч. 22 м.Битрейт : 1940 Кбит/секШирина : 704 пикселяВысота : 528 пикселейСоотношение сторон : 4:3Частота кадров : 25,000 кадров/секЦветовое пространство : YUVСубдискретизация насыщенности : 4:2:0Битовая глубина : 8 битТип развёртки : ПрогрессивнаяМетод сжатия : С потерямиБит/(Пиксели*Кадры) : 0.209Размер потока : 1,12 Гбайт (77%)Библиотека кодирования : XviD 65
Аудио #1Идентификатор : 1Формат : AC-3Формат/Информация : Audio Coding 3Расширение режима : CM (complete main)Параметр Endianness формата : BigИдентификатор кодека : 2000Продолжительность : 1 ч. 22 м.Вид битрейта : ПостоянныйБитрейт : 192 Кбит/секКаналы : 2 каналаРасположение каналов : Front: L RЧастота : 48,0 КГцБитовая глубина : 16 битМетод сжатия : С потерямиРазмер потока : 113 Мбайт (8%)Выравнивание : Разделение по промежуткамПродолжительность промежутка : 40 мс. (1,00 видеокадр)Время предзагрузки промежутка : 500 мс.
Аудио #2Идентификатор : 2Формат : AC-3Формат/Информация : Audio Coding 3Расширение режима : CM (complete main)Параметр Endianness формата : BigИдентификатор кодека : 2000Продолжительность : 1 ч. 22 м.Вид битрейта : ПостоянныйБитрейт : 192 Кбит/секКаналы : 2 каналаРасположение каналов : Front: L RЧастота : 48,0 КГцБитовая глубина : 16 битМетод сжатия : С потерямиРазмер потока : 113 Мбайт (8%)Выравнивание : Разделение по промежуткамПродолжительность промежутка : 40 мс. (1,00 видеокадр)Время предзагрузки промежутка : 500 мс.
Аудио #3Идентификатор : 3Формат : AC-3Формат/Информация : Audio Coding 3Расширение режима : CM (complete main)Параметр Endianness формата : BigИдентификатор кодека : 2000Продолжительность : 1 ч. 22 м.Вид битрейта : ПостоянныйБитрейт : 192 Кбит/секКаналы : 2 каналаРасположение каналов : Front: L RЧастота : 48,0 КГцБитовая глубина : 16 битМетод сжатия : С потерямиРазмер потока : 113 Мбайт (8%)Выравнивание : Разделение по промежуткамПродолжительность промежутка : 40 мс. (1,00 видеокадр)Время предзагрузки промежутка : 500 мс.

Скриншоты




[torrentc.info]_torrent-5349167.torrent
Торрент: Зарегистрирован ·  [ 2017-02-14 13:48 ] ·  9b369b528a1bc4e0afa941b60151a3e2e6b2dcc0

15 KB

Статус: проверено
Скачан: 0 раз
Размер: 1.46 GB
Оценка: 
(Голосов: 0)
Сказали спасибо: 0  Спасибо
Похожие темы
[Профиль]    [ЛС]
Показать сообщения:    
Ответить на тему

Текущее время: Сегодня 12:13

Часовой пояс: GMT + 7



Вы не можете начинать темы
Вы не можете отвечать на сообщения
Вы не можете редактировать свои сообщения
Вы не можете удалять свои сообщения
Вы не можете голосовать в опросах
Вы не можете прикреплять файлы к сообщениям
Вы можете скачивать файлы