Кровавый вампир / El vampiro sangriento (Мигель Морайта / Miguel Morayta) [1962, Мексика, Ужасы, TVRip] + Sub Rus

Ответить на тему
Статистика раздачи [Обновить пиров]
Размер:  700 MB   |    Зарегистрирован:  1 год 5 месяцев   |    Скачан:  0 раз

Полного источника не было: Никогда

 
   
 
 
 
Автор Сообщение

torrentc.info

Создавать темы 14-Фев-2017 13:48

[Цитировать]

Кровавый вампир / El vampiro sangriento
Страна: Мексика
Жанр: Ужасы
Год выпуска: 1962
Продолжительность: 01:38:43
Перевод: Субтитры
Cубтитры: русские
Режиссер: Мигель Морайта / Miguel Morayta
В ролях: Бегонья Паласиос, Эрна Марта Бауман, Рауль Фаррель, Берта Мосс, Карлос Агости, Панчо Кордова, Антонио Раксель, Энрике Лусеро, Лупе Каррилес
Описание: Граф Зигфрид фон Франкенхаузен вместе с молодой женой приезжают в свой родовой замок. Об этом становится известно Бальзамо Калиостро, давнему врагу графа. Он уверен, что Зигфрид является хорошо замаскировавшимся вампиром. Чтобы вывести Франкенхаузена на чистую воду, дочь Калиостро Инес устраивается горничной к его супруге и раскрывает той страшную тайну. Этой же тайной владеет доктор Пейссер, который призван в замок как лечащий врач графини…
Сэмпл: http://sendfile.su/1303651
Качество видео: TVRip
Формат видео: AVI
Видео: XVID, 528x400, 4:3, 29.970 fps, 855 Kbps
Аудио: MP3, 48.0 KHz, 128 Kbps, 2 channels

MediaInfo

General
Complete name : C:\Users\digital\Videos\El vampiro sangriento 1962.avi
Format : AVI
Format/Info : Audio Video Interleave
File size : 700 MiB
Duration : 1h 38mn
Overall bit rate : 991 Kbps
Writing application : VirtualDubMod 1.5.4.1 (build 2178/release)
Writing library : VirtualDubMod build 2178/release
Video
ID : 0
Format : MPEG-4 Visual
Format profile : Advanced Simple@L5
Format settings, BVOP : Yes
Format settings, QPel : No
Format settings, GMC : No warppoints
Format settings, Matrix : Default (H.263)
Muxing mode : Packed bitstream
Codec ID : XVID
Codec ID/Hint : XviD
Duration : 1h 38mn
Bit rate : 855 Kbps
Width : 528 pixels
Height : 400 pixels
Display aspect ratio : 4:3
Frame rate : 29.970 fps
Color space : YUV
Chroma subsampling : 4:2:0
Bit depth : 8 bits
Scan type : Progressive
Compression mode : Lossy
Bits/(Pixel*Frame) : 0.135
Stream size : 603 MiB (86%)
Writing library : XviD 0039 build=2005.10.08 (UTC 2005-10-08)
Audio
ID : 1
Format : MPEG Audio
Format version : Version 1
Format profile : Layer 3
Mode : Joint stereo
Mode extension : MS Stereo
Codec ID : 55
Codec ID/Hint : MP3
Duration : 1h 38mn
Bit rate mode : Constant
Bit rate : 128 Kbps
Channel(s) : 2 channels
Sampling rate : 48.0 KHz
Compression mode : Lossy
Stream size : 90.4 MiB (13%)
Alignment : Aligned on interleaves
Interleave, duration : 67 ms (2.00 video frames)
Interleave, preload duration : 504 ms
Language : un / Ndonga

Скриншот c названием фильма

Скриншоты

Пример субтитров

1
00:00:27,860 --> 00:00:33,120
КРОВАВЫЙ ВАМПИР
2
00:03:20,610 --> 00:03:22,090
Вот он.
3
00:03:23,660 --> 00:03:26,940
- A где мандрагора?
- Под ногами висельника.
4
00:03:42,690 --> 00:03:44,360
Что это?
5
00:03:49,520 --> 00:03:51,600
Кажется, эта карета едет из Мехико.
6
00:04:00,160 --> 00:04:02,100
Но она абсолютно бесшумна.
7
00:04:06,320 --> 00:04:07,960
Надо спрятаться.
8
00:04:08,650 --> 00:04:09,520
Туда!
9
00:04:39,230 --> 00:04:41,520
Стегни этих проклятых лошадей!
10
00:04:41,530 --> 00:04:44,010
Мы должны быть на месте до того, как полнолуние закончится.
11
00:04:44,230 --> 00:04:46,660
Быстрее! Во имя сатаны!
12
00:05:01,000 --> 00:05:04,100
Вы видели кучера? Он был подобен смерти!
13
00:05:04,110 --> 00:05:06,890
Да, я тоже так думаю.
14
00:05:21,350 --> 00:05:24,820
Странно, целая карета с лошадьми не издала ни звука.
15
00:05:25,020 --> 00:05:26,910
Они будто и не касались земли.
16
00:05:30,930 --> 00:05:32,860
Чем бы это ни было, пусть едет куда хочет.
17
00:05:32,860 --> 00:05:34,320
У нас своих проблем достаточно.
18
00:05:39,350 --> 00:05:40,530
Вот мандрагора.
19
00:05:44,900 --> 00:05:49,090
Надо копать осторожно, чтобы не повредить корень.
20
00:05:53,710 --> 00:05:59,160
Вот здесь и находятся чудесные свойства мандрагоры.


[torrentc.info]_torrent-5349301.torrent
Торрент: Зарегистрирован ·  [ 2017-02-14 13:48 ] ·  1d3c90c5f8b0d66464946bed4888207c0b71203a

14 KB

Статус: проверено
Скачан: 0 раз
Размер: 700 MB
Оценка: 
(Голосов: 0)
Сказали спасибо: 0  Спасибо
Похожие темы
[Профиль]    [ЛС]
Показать сообщения:    
Ответить на тему

Текущее время: Сегодня 00:57

Часовой пояс: GMT + 7



Вы не можете начинать темы
Вы не можете отвечать на сообщения
Вы не можете редактировать свои сообщения
Вы не можете удалять свои сообщения
Вы не можете голосовать в опросах
Вы не можете прикреплять файлы к сообщениям
Вы можете скачивать файлы