Трансильвания 6-5000 / Transylvania 6-5000 (Руди де Лука / Rudy De Luca) [1985, Югославия, США, ужасы, комедия, VHSRip] [Full Screen] VO "Ужастик"

Ответить на тему
Статистика раздачи [Обновить пиров]
Размер:  1.37 GB   |    Зарегистрирован:  1 год 5 месяцев   |    Скачан:  0 раз

Полного источника не было: Никогда

 
   
 
 
 
Автор Сообщение

torrentc.info

Создавать темы 14-Фев-2017 13:48

[Цитировать]

Трансильвания 6-5000 / Transylvania 6-5000
[Full Screen]
«Требуются: два репортера, которые заинтересованы в журналистском расследовании века»
Страна: Югославия, США
Жанр: ужасы, комедия
Год выпуска: 1985
Продолжительность: 01:34:41
Перевод: Одноголосый закадровый "Ужастик"
Cубтитры: нет
Режиссер: Руди де Лука / Rudy De Luca
В ролях: Джефф Голдблюм (Jack Harrison), Джозеф Болонья (Dr. Malavaqua), Эд Бегли мл. (Gil Turner), Кэрол Кейн (Lupi), Джеффри Джонс (Lepescu), Джон Байнер (Radu), Джина Дэвис (Odette), Майкл Ричардс (Fejos), Дональд Гибб (Wolfman), Норман Фелл (Mac Turner)
Описание: Два журналиста по заданию редактора «желтой» газеты отправляются в Трансильванию на поиски доктора Франкенштейна. Естественно, они не воспринимают всерьез эту командировку, но, тем не менее, добросовестно пытаются опросить жителей городка. По мере продвижения расследования, они проникают в тайны обитателей Трансильвании. И им становится очевидным, что здесь не все так просто…
Доп. информация: Оцифровка VHS (личный архив) и получение VHSRip alenavova
Эксклюзив для torrentc. При размещении данного релиза на других сайтах ссылка на автора
Релиз
Сэмпл: https://yadi.sk/i/zEcXxUVJ3C2tUM
Качество видео: VHSRip
Формат видео: AVI
Видео: 720x544 (1.32:1), 25 fps, XviD build 73 ~1863 kbps avg, 0.19 bit/pixel
Аудио: 48 kHz, AC3 Dolby Digital, 2/0 (L,R) ch, ~192 kbps

MediaInfo

Трансильвания 6500 - Transylvania 6-5000 [by alenavova].avi
Format : AVI
Format/Info : Audio Video Interleave
File size : 1.37 GiB
Duration : 1 h 34 min
Overall bit rate : 2 066 kb/s
Movie name : Трансильвания 6500 - Transylvania 6-5000 [by alenavova]
Director : by alenavova
Writing application : VirtualDubMod 1.5.10.3 | www.virtualdub-fr.org || (build 2550/release)
Copyright : Edich2
Comment : torrentc
Video
ID : 0
Format : MPEG-4 Visual
Format profile : Advanced Simple@L5
Format settings, BVOP : 1
Format settings, QPel : No
Format settings, GMC : No warppoints
Format settings, Matrix : Custom
Codec ID : XVID
Codec ID/Hint : XviD
Duration : 1 h 34 min
Bit rate : 1 864 kb/s
Width : 720 pixels
Height : 544 pixels
Display aspect ratio : 4:3
Frame rate : 25.000 FPS
Color space : YUV
Chroma subsampling : 4:2:0
Bit depth : 8 bits
Scan type : Progressive
Compression mode : Lossy
Bits/(Pixel*Frame) : 0.190
Stream size : 1.23 GiB (90%)
Writing library : XviD 73
Audio
ID : 1
Format : AC-3
Format/Info : Audio Coding 3
Mode extension : CM (complete main)
Format settings, Endianness : Big
Codec ID : 2000
Duration : 1 h 34 min
Bit rate mode : Constant
Bit rate : 192 kb/s
Channel(s) : 2 channels
Channel positions : Front: L R
Sampling rate : 48.0 kHz
Frame rate : 31.250 FPS (1536 spf)
Compression mode : Lossy
Stream size : 130 MiB (9%)
Alignment : Split accross interleaves
Interleave, duration : 40 ms (1.00 video frame)
Interleave, preload duratio : 500 ms

Скриншоты





[torrentc.info]_torrent-5350074.torrent
Торрент: Зарегистрирован ·  [ 2017-02-14 13:48 ] ·  a1f767fd84302732b251b78bdbaf75504363eb5a

14 KB

Статус: проверено
Скачан: 0 раз
Размер: 1.37 GB
Оценка: 
(Голосов: 0)
Сказали спасибо: 0  Спасибо
Похожие темы
[Профиль]    [ЛС]
Показать сообщения:    
Ответить на тему

Текущее время: Сегодня 01:13

Часовой пояс: GMT + 7



Вы не можете начинать темы
Вы не можете отвечать на сообщения
Вы не можете редактировать свои сообщения
Вы не можете удалять свои сообщения
Вы не можете голосовать в опросах
Вы не можете прикреплять файлы к сообщениям
Вы можете скачивать файлы