Семейный талисман / Telesme schekasté (Сиямак Ясами / Syamak Yasami) [1958, Иран, драма, TeleCine] [советская прокатная копия] Dub (Союзмультфильм)

Ответить на тему
Статистика раздачи [Обновить пиров]
Размер:  1.36 GB   |    Зарегистрирован:  1 год 8 месяцев   |    Скачан:  0 раз

Полного источника не было: Никогда

 
   
 
 
 
Автор Сообщение

torrentc.info

Создавать темы 14-Фев-2017 13:48

[Цитировать]

Семейный талисман / Telesme schekasté / советская прокатная копия
Страна: Иран
Жанр: драма
Год выпуска: 1958
Продолжительность: 01:21:00
Перевод: Профессиональный (дублированный) Союзмультфильм
Cубтитры: нет
Режиссер: Сиямак Ясами / Syamak Yasami
В ролях: Носрат-Олла Мохташем, Тахмине, Зухури, Жале, Нариман
Описание: Молодой Рашид вместе со своим другом Асадом едет к дяде - богатому хану, с дочерью которого Назанин он обручен ещё с детства. По дороге он узнает, что в доме дяди его ждет опасность. Азар, молодая жена хана, желая завладеть всеми богатствами и землями мужа, решила убить Рашида. В доме дяди Рашид появляется под видом доктора, собирающего травы. Назанин исчезла из дома отца, когда тот женился на Азар. Некий Фархад, любовник Азар, решает убить Рашида. подозревая в нем своего соперника. Но Рашид спасается и находит приют в небольшой деревушке. Здесь по семейному талисману он находит Назанин.
Доп. информация: Телесин хорошего качества с 35мм-фильмокопии из моей коллекции, на замену моей ранней экранке. Фильм вышел в советский прокат в 1963 году. Настоящее название фильма - "Сломанный талисман".
Сэмпл: http://sendfile.su/1304590
Качество видео: TeleCine
Формат видео: AVI
Видео: XviD MPEG-4, 672x304 (2.21:1), 25 fps, ~2273 kbps avg, 0.45 bit/pixel
Аудио: MPEG Layer 3, 48 kHz, ~128.00 kbps avg, 2 ch

MediaInfo

Общее
Полное имя : semeynyj_talisman.avi
Формат : AVI
Формат/Информация : Audio Video Interleave
Размер файла : 1,36 Гбайт
Продолжительность : 1 ч. 21 м.
Общий поток : 2411 Кбит/сек
Программа кодирования : VirtualDubMod 1.5.10.2 (build 2540/release)
Библиотека кодирования : VirtualDubMod build 2540/release
Видео
Идентификатор : 0
Формат : MPEG-4 Visual
Профиль формата : Advanced Simple@L5
Параметр BVOP формата : 2
Параметр QPel формата : Нет
Параметр GMC формата : Без точки перехода
Параметр матрицы формата : Default (H.263)
Режим смешивания : Сжатый битовый поток
Идентификатор кодека : XVID
Идентификатор кодека/Подсказка : XviD
Продолжительность : 1 ч. 21 м.
Битрейт : 2273 Кбит/сек
Ширина : 672 пикселя
Высота : 304 пикселя
Соотношение сторон : 2,2:1
Частота кадров : 25,000 кадров/сек
Цветовое пространство : YUV
Субдискретизация насыщенности : 4:2:0
Битовая глубина : 8 бит
Тип развёртки : Прогрессивная
Метод сжатия : С потерями
Бит/(Пиксели*Кадры) : 0.445
Размер потока : 1,29 Гбайт (94%)
Библиотека кодирования : XviD 1.2.1 (UTC 2008-12-04)
Аудио
Идентификатор : 1
Формат : MPEG Audio
Версия формата : Version 1
Профиль формата : Layer 3
Режим : Joint stereo
Идентификатор кодека : 55
Идентификатор кодека/Подсказка : MP3
Продолжительность : 1 ч. 21 м.
Вид битрейта : Постоянный
Битрейт : 128 Кбит/сек
Каналы : 2 канала
Частота : 48,0 КГц
Метод сжатия : С потерями
Размер потока : 74,2 Мбайт (5%)
Выравнивание : Соединение по промежуткам
Продолжительность промежутка : 40 мс. (1,00 видеокадр)
Время предзагрузки промежутка : 504 мс.

Скриншот c названием фильма

Скриншоты



[torrentc.info]_torrent-5350752.torrent
Торрент: Зарегистрирован ·  [ 2017-02-14 13:48 ] ·  b3e0631f1f04d26d63faef35013a608109aa9e1b

14 KB

Статус: проверено
Скачан: 0 раз
Размер: 1.36 GB
Оценка: 
(Голосов: 0)
Сказали спасибо: 0  Спасибо
Похожие темы
[Профиль]    [ЛС]
Показать сообщения:    
Ответить на тему

Текущее время: Сегодня 20:02

Часовой пояс: GMT + 7



Вы не можете начинать темы
Вы не можете отвечать на сообщения
Вы не можете редактировать свои сообщения
Вы не можете удалять свои сообщения
Вы не можете голосовать в опросах
Вы не можете прикреплять файлы к сообщениям
Вы можете скачивать файлы