Прошлой ночью / The Night Before (Том Эберхардт / Thom Eberhardt) [1988, США, комедия, криминал, DVDRip] MVO + 2AVO (Павел Прямостанов) (Юрий Живов)

Ответить на тему
Статистика раздачи [Обновить пиров]
Размер:  1.46 GB   |    Зарегистрирован:  1 год 5 месяцев   |    Скачан:  0 раз

Полного источника не было: Никогда

 
   
 
 
 
Автор Сообщение

torrentc.info

Создавать темы 14-Фев-2017 13:48

[Цитировать]

Прошлой ночью / The Night Before- Страна: США
Жанр: комедия, криминал
Год выпуска: 1988
Продолжительность: 01:26:40-Перевод: Профессиональный (многоголосый закадровый)
Перевод 2: Авторский (одноголосый закадровый) Павел Прямостанов (Готлиб2)
Перевод 3: Авторский (одноголосый закадровый) Юрий Живов
Cубтитры: нет
Оригинальная аудиодорожка: нет-Режиссер: Том Эберхардт / Thom Eberhardt
В ролях: Киану Ривз /Keanu Reeves/, Лори Лафлин /Lori Loughlin/, Тереза Салдана /Theresa Saldana/, Тринидад Сильва /Trinidad Silva/, Сюзанн Снайдер /Suzanne Snyder/, Морган Лофтинг /Morgan Lofting/, Гвил Ричардс /Gwil Richards/, Крис Хеберт /Chris Hebert/, Майкл Грин /Michael Greene/, Памела Гордон /Pamela Gordon/-Описание: Молодой парень по имени Уинстон собирается на выпускной бал. Да не один, а вместе с самой красивой девочкой колледжа.
Можно себе представить весь ужас, охвативший Уинса, когда он очнулся под утро лежащим на мостовой в каком-то грязном переулке, без отцовской машины, без спутницы, а самое главное — без малейшего представления о том, куда все это подевалось и что произошло с ним прошлой ночью…-Доп. информация: Необоснованно затерявшийся фильм с Киану Ривзом, всем советую на просмотр. Снято довольно таки неплохо, плюс множество абсурдных ситуаций, которые очень неплохо здесь вписываются.
Рип с этого [url=viewtopic.php?t=1498792]DVD[/url]. Собраны все имеющиеся дорожки, и убран рассинхрон звука.
За звуковую дорожку Живова спасибо Fikaloid.-Сэмпл: http://multi-up.com/1138615-Качество видео: DVDRip
Формат видео: AVI-Видео: 688x400, 25.000 fps, XviD build 67 ~1 823 kbps avg, 0.265 bit/pixel
Аудио: 48 kHz, AC3, 2 (L,R), ~192.00 kbps avg (MVO)
Аудио 2: 48 kHz, AC3, 2 (L,R), ~192.00 kbps avg (Павел Прямостанов (Готлиб2))
Аудио 3: 48 kHz, AC3, 2 (L,R), ~192.00 kbps avg (Юрий Живов)

MediaInfo

General
Complete name : F:\муви на smart\The Night Before\Прошлой ночью (1988) By Crusstill+.avi
Format : AVI
Format/Info : Audio Video Interleave
File size : 1.46 GiB
Duration : 1 h 26 min
Overall bit rate : 2 418 kb/s
Writing application : VirtualDubMod 1.5.4.1 (build 2066/release)
Writing library : VirtualDubMod build 2066/release
Video
ID : 0
Format : MPEG-4 Visual
Format profile : Advanced Simple@L5
Format settings, BVOP : 1
Format settings, QPel : No
Format settings, GMC : No warppoints
Format settings, Matrix : Custom
Codec ID : XVID
Codec ID/Hint : XviD
Duration : 1 h 26 min
Bit rate : 1 823 kb/s
Width : 688 pixels
Height : 400 pixels
Display aspect ratio : 1.720
Frame rate : 25.000 FPS
Color space : YUV
Chroma subsampling : 4:2:0
Bit depth : 8 bits
Scan type : Progressive
Compression mode : Lossy
Bits/(Pixel*Frame) : 0.265
Stream size : 1.10 GiB (75%)
Writing library : XviD 67
Audio #1
ID : 1
Format : AC-3
Format/Info : Audio Coding 3
Mode extension : CM (complete main)
Format settings, Endianness : Big
Codec ID : 2000
Duration : 1 h 26 min
Bit rate mode : Constant
Bit rate : 192 kb/s
Channel(s) : 2 channels
Channel positions : Front: L R
Sampling rate : 48.0 kHz
Frame rate : 31.250 FPS (1536 spf)
Compression mode : Lossy
Stream size : 119 MiB (8%)
Alignment : Split accross interleaves
Interleave, duration : 40 ms (1.00 video frame)
Interleave, preload duratio : 500 ms
Audio #2
ID : 2
Format : AC-3
Format/Info : Audio Coding 3
Mode extension : CM (complete main)
Format settings, Endianness : Big
Codec ID : 2000
Duration : 1 h 26 min
Bit rate mode : Constant
Bit rate : 192 kb/s
Channel(s) : 2 channels
Channel positions : Front: L R
Sampling rate : 48.0 kHz
Frame rate : 31.250 FPS (1536 spf)
Compression mode : Lossy
Stream size : 119 MiB (8%)
Alignment : Split accross interleaves
Interleave, duration : 40 ms (1.00 video frame)
Interleave, preload duratio : 500 ms
Audio #3
ID : 3
Format : AC-3
Format/Info : Audio Coding 3
Mode extension : CM (complete main)
Format settings, Endianness : Big
Codec ID : 2000
Duration : 1 h 26 min
Bit rate mode : Constant
Bit rate : 192 kb/s
Channel(s) : 2 channels
Channel positions : Front: L R
Sampling rate : 48.0 kHz
Frame rate : 31.250 FPS (1536 spf)
Compression mode : Lossy
Stream size : 119 MiB (8%)
Alignment : Split accross interleaves
Interleave, duration : 40 ms (1.00 video frame)
Interleave, preload duratio : 500 ms

Скриншоты

Конкуренты

По поводу других раздач.
Здесь апскейл.
[url=viewtopic.php?t=5287228]http://torrentc/forum/viewtopic.php?t=5287228[/url]
Здесь апскейл и рассинхрон звука на всех дорожках.
[url=viewtopic.php?t=1787035]http://torrentc/forum/viewtopic.php?t=1787035[/url]


[torrentc.info]_torrent-5351047.torrent
Торрент: Зарегистрирован ·  [ 2017-02-14 13:48 ] ·  8911d003bf63c31a7697862a657d2edca3b6d486

15 KB

Статус: проверено
Скачан: 0 раз
Размер: 1.46 GB
Оценка: 
(Голосов: 0)
Сказали спасибо: 0  Спасибо
Похожие темы
[Профиль]    [ЛС]
Показать сообщения:    
Ответить на тему

Текущее время: Сегодня 00:39

Часовой пояс: GMT + 7



Вы не можете начинать темы
Вы не можете отвечать на сообщения
Вы не можете редактировать свои сообщения
Вы не можете удалять свои сообщения
Вы не можете голосовать в опросах
Вы не можете прикреплять файлы к сообщениям
Вы можете скачивать файлы