День первый / Day One (Джозеф Сарджент / Joseph Sargent) [1989, США, Канада, драма, исторический, DVDRip] VO (johny4545) + Original Eng

Ответить на тему
Статистика раздачи [Обновить пиров]
Размер:  1.47 GB   |    Зарегистрирован:  1 год 7 месяцев   |    Скачан:  0 раз

Полного источника не было: Никогда

 
   
 
 
 
Автор Сообщение

torrentc.info

Создавать темы 14-Фев-2017 13:48

[Цитировать]

День первый / Day One / ТВ
Страна: США, Канада
Жанр: драма, исторический
Год выпуска: 1989
Продолжительность: 02:20:29
Перевод: Одноголосый закадровый johny4545
Cубтитры: нет
Оригинальная аудиодорожка: английский
Режиссер: Джозеф Сарджент/Joseph Sargent
В ролях: Брайан Деннехи, Дэвид Стрэтэйрн, Майкл Такер, Хьюм Кронин, Ричард А. Дайсарт, Хэл Холбрук
Описание: История «Манхэттенского проекта» — секретной американской программы по разработке атомного оружия, проводившейся во время второй мировой войны и объединившей крупнейших научных деятелей Америки и Европы.
Доп. информация: IMDB - http://www.imdb.com/title/tt0097159/?ref_=fn_al_tt_3
Сэмпл: http://sendfile.su/1305087
Качество видео: DVDRip
Формат видео: AVI
Видео: Xvid, 512х384, 1.33:1, 29.970 fps, 1197 kbps
Аудио: MPEG 1.0 Layer3, 44.1 kHz, 128 kbps. 2.0
Аудио 2: MPEG 1.0 Layer3, 44.1 kHz, 160 kbps. 2.0

MediaInfo

Day One.1989.DVDRip.XviD.RUS+ENG.VO (johny4545)+orig.eng.avi
Format : AVI
Format/Info : Audio Video Interleave
File size : 1.47 GiB
Duration : 2h 20mn
Overall bit rate : 1 503 Kbps
Writing application : VirtualDubMod 1.5.10.2 (build 2540/release)
Writing library : VirtualDubMod build 2540/release
Video #0
ID : 0
Format : xvid
Codec ID : xvid
Duration : 2h 20mn
Bit rate : 1 197 Kbps
Width : 512 pixels
Height : 384 pixels
Display aspect ratio : 4:3
Frame rate : 29.970 fps
Bits/(Pixel*Frame) : 0.203
Stream size : 1.17 GiB (80%)
Audio #1
ID : 1
Format : MPEG Audio
Format version : Version 1
Format profile : Layer 3
Mode : Joint stereo
Mode extension : MS Stereo
Codec ID : 55
Codec ID/Hint : MP3
Duration : 2h 20mn
Bit rate mode : Constant
Bit rate : 128 Kbps
Channel(s) : 2 channels
Sampling rate : 44.1 KHz
Compression mode : Lossy
Stream size : 129 MiB (9%)
Alignment : Split accross interleaves
Interleave, duration : 33 ms (1.00 video frame)
Interleave, preload duration : 500 ms
Audio #2
ID : 2
Format : MPEG Audio
Format version : Version 1
Format profile : Layer 3
Mode : Joint stereo
Mode extension : MS Stereo
Codec ID : 55
Codec ID/Hint : MP3
Duration : 2h 20mn
Bit rate mode : Constant
Bit rate : 160 Kbps
Channel(s) : 2 channels
Sampling rate : 44.1 KHz
Compression mode : Lossy
Stream size : 161 MiB (11%)
Alignment : Split accross interleaves
Interleave, duration : 33 ms (1.00 video frame)
Interleave, preload duration : 500 ms
Writing library : LAME3.97

Скриншот c названием фильма

Скриншоты



[torrentc.info]_torrent-5351449.torrent
Торрент: Зарегистрирован ·  [ 2017-02-14 13:48 ] ·  2e6a31e177e3b01166dee593184ad617ad771a9a

15 KB

Статус: проверено
Скачан: 0 раз
Размер: 1.47 GB
Оценка: 
(Голосов: 0)
Сказали спасибо: 0  Спасибо
Похожие темы
[Профиль]    [ЛС]
Показать сообщения:    
Ответить на тему

Текущее время: Сегодня 13:03

Часовой пояс: GMT + 7



Вы не можете начинать темы
Вы не можете отвечать на сообщения
Вы не можете редактировать свои сообщения
Вы не можете удалять свои сообщения
Вы не можете голосовать в опросах
Вы не можете прикреплять файлы к сообщениям
Вы можете скачивать файлы