Стальная заря / Стальной рассвет / Steel Dawn (Лэнс Хул / Lance Hool) [1987, США, фантастика, боевик, приключения, VHSRip] [Full Screen] AVO (Сергей Кузнецов)

Ответить на тему
Статистика раздачи [Обновить пиров]
Размер:  1.37 GB   |    Зарегистрирован:  1 год 9 месяцев   |    Скачан:  0 раз

Полного источника не было: Никогда

 
   
 
 
 
Автор Сообщение

torrentc.info

Создавать темы 14-Фев-2017 13:48

[Цитировать]

Стальная заря / Стальной рассвет / Steel Dawn
[Full Screen]
«Там где вода дороже крови, всё решает холодная сталь»
Страна: США
Жанр: фантастика, боевик, приключения
Год выпуска: 1987
Продолжительность: 01:35:15
Перевод: Авторский (одноголосый закадровый) Сергей Кузнецов
Cубтитры: нет
Режиссер: Лэнс Хул / Lance Hool
В ролях: Патрик Суэйзи, Лиза Ниеми, Энтони Зербе, Брайон Джеймс, Джон Фуджиока, Арнольд Вослоу
Описание: 1. Опустошительные войны и глобальные катаклизмы навсегда изменили облик Земли. В песках бескрайних пустынь, покрывших планету, жизнь жалких горсток людей целиком зависит от редких источников пресной воды. В этом суровом постапокалиптическом мире обитатели городка Меридиан живут в вечном страхе перед бандой безжалостного Дамнила, властвующего на их землях. Он намерен отнять драгоценный колодец у одинокой красавицы Кэйши и ее юного сына. Но планы головорезов внезапно нарушает появление загадочного Кочевника с острым мечом Миротворца. Молчаливый незнакомец с блестящими навыками воина и холодным сердцем героя встает на защиту городка и отважной женщины, поклявшись избавить их от злодеев. Но Дамнил не намерен сдаваться. Он поручает своим наемникам избавиться от чужака любым способом…
2. Фантастический боевик типа "Сумасшедшего Макса", но без дорожной романтики. Суэйзи хорош в роли футуристического воина-каратиста, который направляется в лагерь, управляемый Лизой Ниеми (в жизни жена Суэйзи). Он помогает защищать лагерь от человека, убившего его боевого учителя. Картина, снятая в живописной пустыне Южной Африки, не принесла Пэтрику успеха, сравнимого с "Грязными танцами", но в нашей стране фильм был популярен. (Иванов М.)
Доп. информация: Спасибо RoxMarty оцифровка VHS и предоставление для релиза
Релиз
Сэмпл: https://yadi.sk/i/M7wG1__A3CeV8Q
Качество видео: VHSRip
Формат видео: AVI
Видео: 704x544 (1.29:1), 25 fps, XviD build 73 ~1851 kbps avg, 0.19 bit/pixel
Аудио: 48 kHz, AC3 Dolby Digital, 2/0 (L,R) ch, ~192 kbps

MediaInfo

Стальная заря (Steel dawn) [by Edich2].avi
Format : AVI
Format/Info : Audio Video Interleave
File size : 1.37 GiB
Duration : 1 h 35 min
Overall bit rate : 2 053 kb/s
Movie name : Стальная заря (Steel dawn) [by Edich2]
Director : by Edich2
Writing application : VirtualDubMod 1.5.10.3 | www.virtualdub-fr.org || (build 2550/release)
Copyright : RoxMarty
Comment : torrentc
Video
ID : 0
Format : MPEG-4 Visual
Format profile : Advanced Simple@L5
Format settings, BVOP : 1
Format settings, QPel : No
Format settings, GMC : No warppoints
Format settings, Matrix : Custom
Codec ID : XVID
Codec ID/Hint : XviD
Duration : 1 h 35 min
Bit rate : 1 852 kb/s
Width : 704 pixels
Height : 544 pixels
Display aspect ratio : 1.294
Frame rate : 25.000 FPS
Color space : YUV
Chroma subsampling : 4:2:0
Bit depth : 8 bits
Scan type : Progressive
Compression mode : Lossy
Bits/(Pixel*Frame) : 0.193
Stream size : 1.23 GiB (90%)
Writing library : XviD 73
Audio
ID : 1
Format : AC-3
Format/Info : Audio Coding 3
Mode extension : CM (complete main)
Format settings, Endianness : Big
Codec ID : 2000
Duration : 1 h 35 min
Bit rate mode : Constant
Bit rate : 192 kb/s
Channel(s) : 2 channels
Channel positions : Front: L R
Sampling rate : 48.0 kHz
Frame rate : 31.250 FPS (1536 spf)
Compression mode : Lossy
Stream size : 131 MiB (9%)
Alignment : Split accross interleaves
Interleave, duration : 40 ms (1.00 video frame)
Interleave, preload duratio : 500 ms

Скриншоты




[torrentc.info]_torrent-5351664.torrent
Торрент: Зарегистрирован ·  [ 2017-02-14 13:48 ] ·  0806134f7ea5223108d89aed6fbb3f99b93e2469

14 KB

Статус: проверено
Скачан: 0 раз
Размер: 1.37 GB
Оценка: 
(Голосов: 0)
Сказали спасибо: 0  Спасибо
Похожие темы
[Профиль]    [ЛС]
Показать сообщения:    
Ответить на тему

Текущее время: Сегодня 07:26

Часовой пояс: GMT + 7



Вы не можете начинать темы
Вы не можете отвечать на сообщения
Вы не можете редактировать свои сообщения
Вы не можете удалять свои сообщения
Вы не можете голосовать в опросах
Вы не можете прикреплять файлы к сообщениям
Вы можете скачивать файлы