Поцелуй меня, убийца / Kiss Me Killer / Embrasse-moi / Tango au clair de lune (Роланд Марсейнак / Roland Marceignac) [1977, Франция, Криминал, эротика, драма, VHSRip] VO

Ответить на тему
Статистика раздачи [Обновить пиров]
Размер:  1.06 GB   |    Зарегистрирован:  1 год 7 месяцев   |    Скачан:  1 раз

Полного источника не было: 7 месяцев 18 дней

 
   
 
 
 
Автор Сообщение

torrentc.info

Создавать темы 14-Фев-2017 13:48

[Цитировать]

Поцелуй меня, убийца / Kiss Me Killer / Embrasse-moi / Tango au clair de lune
Страна: Франция
Жанр: Криминал , эротика , драма
Год выпуска: 1977
Продолжительность: 1:40:03
Перевод: Одноголосый закадровый
Cубтитры: нет
Режиссер: Роланд Марсейнак / Roland Marceignac
В ролях: Элис Арно , Лина Ромэй , Оливье Мэтхот
Описание: После совершения преступления в составе организованной преступной группы один из её членов, Радек, избавляется от всех своих подельников. Впоследствии он женится на вдове одного из убитых им преступников. Спустя некоторое время в адрес Радека начинают приходить письма с угрозами, которые шлёт якобы один из умерших, на чьей жене впоследствии женился Радек.
Доп. информация: За наводку на релиз спасибо sdv7
Звуковую дорожку взял здесь [url=viewtopic.php?t=2553064]http://torrentc/forum/viewtopic.php?t=2553064[/url]
Видеоряд найден в сети
Сэмпл: https://yadi.sk/i/9vzcjQkI3Cnwgg
Качество видео: VHSRip
Формат видео: AVI
Видео: XviD , 720x316 (2.25:1) , 25.000 fps , 1 322 Kbps
Аудио: AC3 , 48 kHz , 192.00 kbps avg , 2/0 (L,R) ch

MediaInfo

Complete name Поцелуй меня, убийца 1977.avi
Format : AVI
Format/Info : Audio Video Interleave
File size : 1.06 GiB
Duration : 1h 40mn
Overall bit rate : 1 524 Kbps
Writing application : Lavf51.12.1
Writing library : VirtualDub build 35491/release
Video
ID : 0
Format : xvid
Codec ID : xvid
Duration : 1h 40mn
Bit rate : 1 322 Kbps
Width : 720 pixels
Height : 316 pixels
Display aspect ratio : 2.25:1
Frame rate : 25.000 fps
Bits/(Pixel*Frame) : 0.232
Stream size : 946 MiB (87%)
Audio
ID : 1
Format : AC-3
Format/Info : Audio Coding 3
Mode extension : CM (complete main)
Format settings, Endianness : Big
Codec ID : 2000
Duration : 1h 40mn
Bit rate mode : Constant
Bit rate : 192 Kbps
Channel(s) : 2 channels
Channel positions : Front: L R
Sampling rate : 48.0 KHz
Frame rate : 31.250 fps (1536 spf)
Compression mode : Lossy
Stream size : 137 MiB (13%)
Alignment : Aligned on interleaves
Interleave, duration : 40 ms (1.00 video frame)
Interleave, preload duratio : 512 ms


[torrentc.info]_torrent-5352151.torrent
Торрент: Зарегистрирован ·  [ 2017-02-14 13:48 ] ·  5311d79d0200933a55955e1472b7794238178410

11 KB

Статус: проверено
Скачан: 1 раз
Размер: 1.06 GB
Оценка: 
(Голосов: 0)
Сказали спасибо: 0  Спасибо
Похожие темы
[Профиль]    [ЛС]
Показать сообщения:    
Ответить на тему

Текущее время: Сегодня 06:29

Часовой пояс: GMT + 7



Вы не можете начинать темы
Вы не можете отвечать на сообщения
Вы не можете редактировать свои сообщения
Вы не можете удалять свои сообщения
Вы не можете голосовать в опросах
Вы не можете прикреплять файлы к сообщениям
Вы можете скачивать файлы