Тёрнер и Хуч / Turner & Hooch (Роджер Споттисвуд / Roger Spottiswoode) [1989, США, триллер, драма, комедия, криминал, VHSRip-AVC] [Fullscreen] Dub (СВ-Дубль по заказу ВГТРК)

Ответить на тему
Статистика раздачи [Обновить пиров]
Размер:  2.91 GB   |    Зарегистрирован:  1 год 7 месяцев   |    Скачан:  0 раз

Полного источника не было: Никогда

 
   
 
 
 
Автор Сообщение

torrentc.info

Создавать темы 14-Фев-2017 13:48

[Цитировать]

Тёрнер и Хуч / Turner & Hooch / Fullscreen
Страна: США
Жанр: триллер, драма, комедия, криминал
Год выпуска: 1989
Продолжительность: 01:39:10
Перевод: Профессиональный (дублированный) СВ-Дубль по заказу ВГТРК
Cубтитры: нет
Оригинальная аудиодорожка: нет
Режиссер: Роджер Споттисвуд / Roger Spottiswoode
В ролях: Том Хэнкс, Мэр Уиннингхэм, Крэйг Т. Нельсон, Реджинальд ВелДжонсон, Скотт Полин, Дж. К. Куин, Джон МакИнтайр, Клайд Кусацу, Бисли Дог...
Описание: Профессиональный сыщик Скотт Тернер ненавидит беспорядок. В его жизни все заранее спланировано и предсказуемо. Хуч — самый неспокойный, самый невоспитанный и абсолютно неподдающийся дрессировке пес.
Не повезет тому несчастному хозяину, к которому он попадет. Тернер слишком поздно понял, кого впустил в свой дом. Но шумные ссоры ни к чему не привели. Возможно, лучший способ одолеть своего врага, это подружиться с ним.
Доп. информация: Оцифровка VHS с записью канала (давным-давно, в прошлом веке тысячелетии) из собственной коллекции.
Fullscreen.
Сэмпл: http://sendfile.su/1306004
Качество видео: VHSRip-AVC
Формат видео: MP4
Видео: AVC, 720х576, 5:4, 50,000 кадров/сек, 4000 Кбит/сек
Аудио: AAC, 48,0 КГц, 192 Кбит/сек, 2.0 (псевдостерео)

MediaInfo

Общее
Полное имя : K:\torrents\...Turner & Hooch\Turner & Hooch.mp4
Формат : MPEG-4
Профиль формата : Base Media
Идентификатор кодека : isom (isom)
Размер файла : 2,91 Гбайт
Продолжительность : 1 ч. 39 м.
Режим общего битрейта : Переменный
Общий поток : 4195 Кбит/сек
Дата кодирования : UTC 2017-02-05 16:17:56
Дата пометки : UTC 2017-02-05 16:17:56
Видео
Идентификатор : 2
Формат : AVC
Формат/Информация : Advanced Video Codec
Профиль формата : Baseline@L3
Параметр CABAC формата : Нет
Параметр ReFrames формата : 1 кадр
Параметр GOP формата : M=1, N=100
Идентификатор кодека : avc1
Идентификатор кодека/Информация : Advanced Video Coding
Продолжительность : 1 ч. 39 м.
Битрейт : 4000 Кбит/сек
Максимальный битрейт : 4360 Кбит/сек
Ширина : 720 пикселей
Высота : 576 пикселей
Соотношение сторон : 5:4
Режим частоты кадров : Постоянный
Частота кадров : 50,000 кадров/сек
Цветовое пространство : YUV
Субдискретизация насыщенности : 4:2:0
Битовая глубина : 8 бит
Тип развёртки : Прогрессивная
Бит/(Пиксели*Кадры) : 0.193
Размер потока : 2,77 Гбайт (95%)
Дата пометки : UTC 2017-02-05 16:21:48
Аудио
Идентификатор : 1
Формат : AAC
Формат/Информация : Advanced Audio Codec
Профиль формата : LC
Идентификатор кодека : 40
Продолжительность : 1 ч. 39 м.
Вид битрейта : Переменный
Битрейт : 192 Кбит/сек
Максимальный битрейт : 196 Кбит/сек
Каналы : 2 канала
Расположение каналов : Front: L R
Частота : 48,0 КГц
Частота кадров : 46,875 кадров/сек (1024 spf)
Метод сжатия : С потерями
Размер потока : 134 Мбайт (5%)
Default : Да
Alternate group : 1
Дата пометки : UTC 2017-02-05 16:21:48

Скриншот c названием фильма



[torrentc.info]_torrent-5353041.torrent
Торрент: Зарегистрирован ·  [ 2017-02-14 13:48 ] ·  aa52e384d0a67dbfe62d7d42d73fd386322efa88

15 KB

Статус: проверено
Скачан: 0 раз
Размер: 2.91 GB
Оценка: 
(Голосов: 0)
Сказали спасибо: 0  Спасибо
Похожие темы
[Профиль]    [ЛС]
Показать сообщения:    
Ответить на тему

Текущее время: Сегодня 13:03

Часовой пояс: GMT + 7



Вы не можете начинать темы
Вы не можете отвечать на сообщения
Вы не можете редактировать свои сообщения
Вы не можете удалять свои сообщения
Вы не можете голосовать в опросах
Вы не можете прикреплять файлы к сообщениям
Вы можете скачивать файлы