Большое приключение Пи-Ви / Pee-wee\'s Big Adventure (Тим Бёртон / Tim Burton) [1985, США, комедия, VHSRip-AVC] [Fullscreen] MVO (Селена Интернешнл по заказу ОРТ)

Ответить на тему
Статистика раздачи [Обновить пиров]
Размер:  2.56 GB   |    Зарегистрирован:  1 год 5 месяцев   |    Скачан:  0 раз

Полного источника не было: Никогда

 
   
 
 
 
Автор Сообщение

torrentc.info

Создавать темы 14-Фев-2017 13:48

[Цитировать]

Большое приключение Пи-Ви / Pee-wee's Big Adventure / Fullscreen
Страна: США
Жанр: комедия
Год выпуска: 1985
Продолжительность: 01:27:15
Перевод: Профессиональный (многоголосый закадровый) Селена Интернешнл по заказу ОРТ
Cубтитры: нет
Оригинальная аудиодорожка: нет
Режиссер: Тим Бёртон / Tim Burton
В ролях: Пол Рубенс, Элизабет Дэйли, Марк Холтон, Дайан Салинджер, Джадд Омен, Монте Лэндис, Профессор Тору Танака, Эд Херлихи, Кассандра Петерсон, Джеймс Бролин, Морган Фэйрчайлд, Милтон Берл - играют сами себя, Тим Бёртон (в титрах не указан)
Описание: Пи-Ви, симпатичнейший бездельник, отправляется в дорогу, где ему предстоит встретить самых неожиданных людей: жуликов, хулиганов, ковбоев, экстравагантных официанток и многих других.
Доп. информация:
Оцифровка VHS с записью эфира ОРТ из собственной коллекции. Запись сделана в период с 1 января 1997 по 31 октября 1998.
Fullscreen.
Перевод ОРТ на трекере впервые
, а может и в рунете - не проверял.
Сэмпл: http://sendfile.su/1306174
Качество видео: TVRip-AVC
Формат видео: MP4
Видео: AVC, 720х578, 5:4, 50,000 кадров/сек, 4000 Кбит/сек
Аудио: AAC, 48,0 КГц, 192 Кбит/сек, 2 канала (псевдостерео)

MediaInfo

Общее
Полное имя : K:\torrents\Pee-wee's Big Adventure\Pee-wee's Big Adventure.mp4
Формат : MPEG-4
Профиль формата : Base Media
Идентификатор кодека : isom (isom/iso2/avc1/mp41)
Размер файла : 2,56 Гбайт
Продолжительность : 1 ч. 27 м.
Общий поток : 4198 Кбит/сек
Программа кодирования : Lavf57.25.100
Видео
Идентификатор : 1
Формат : AVC
Формат/Информация : Advanced Video Codec
Профиль формата : Baseline@L3
Параметр CABAC формата : Нет
Параметр ReFrames формата : 1 кадр
Параметр GOP формата : M=1, N=100
Идентификатор кодека : avc1
Идентификатор кодека/Информация : Advanced Video Coding
Продолжительность : 1 ч. 27 м.
Битрейт : 4000 Кбит/сек
Ширина : 720 пикселей
Высота : 576 пикселей
Соотношение сторон : 5:4
Режим частоты кадров : Постоянный
Частота кадров : 50,000 кадров/сек
Цветовое пространство : YUV
Субдискретизация насыщенности : 4:2:0
Битовая глубина : 8 бит
Тип развёртки : Прогрессивная
Бит/(Пиксели*Кадры) : 0.193
Размер потока : 2,44 Гбайт (95%)
Аудио
Идентификатор : 2
Формат : AAC
Формат/Информация : Advanced Audio Codec
Профиль формата : LTP
Идентификатор кодека : 40
Продолжительность : 1 ч. 27 м.
Вид битрейта : Постоянный
Битрейт : 192 Кбит/сек
Каналы : 2 канала
Channel(s)_Original : 3 канала
Расположение каналов : Front: L C R
Частота : 64,0 КГц
Частота кадров : 62,500 кадра/сек (1024 spf)
Метод сжатия : С потерями
Размер потока : 118 Мбайт (5%)
Default : Да
Alternate group : 1

Скриншот c названием фильма



[torrentc.info]_torrent-5353373.torrent
Торрент: Зарегистрирован ·  [ 2017-02-14 13:48 ] ·  1ce9813c64893f0615d7f548ca83638835fb3209

13 KB

Статус: проверено
Скачан: 0 раз
Размер: 2.56 GB
Оценка: 
(Голосов: 0)
Сказали спасибо: 0  Спасибо
Похожие темы
[Профиль]    [ЛС]
Показать сообщения:    
Ответить на тему

Текущее время: Сегодня 22:01

Часовой пояс: GMT + 7



Вы не можете начинать темы
Вы не можете отвечать на сообщения
Вы не можете редактировать свои сообщения
Вы не можете удалять свои сообщения
Вы не можете голосовать в опросах
Вы не можете прикреплять файлы к сообщениям
Вы можете скачивать файлы