Взлом / Der Bruch (Франк Бейер / Frank Beyer) [1989, Германия (ГДР), Комедия, криминал, DVDRip-AVC] Dub (к/ст им. М.Горького) + Original Ger

Ответить на тему
Статистика раздачи [Обновить пиров]
Размер:  1.45 GB   |    Зарегистрирован:  1 год 5 месяцев   |    Скачан:  0 раз

Полного источника не было: Никогда

 
   
 
 
 
Автор Сообщение

torrentc.info

Создавать темы 14-Фев-2017 13:48

[Цитировать]

Взлом / Der Bruch
Жанр: Комедия, криминал
Страна: Германия (ГДР)
Студия: Deutsche Film (DEFA)
Год выпуска: 1989
Продолжительность: 01:53:11
Перевод: Профессиональный (дублированный) к/ст им. М.Горького
Cубтитры: нет
Оригинальная аудиодорожка: немецкий
Режиссер: Франк Бейер / Frank Beyer
В ролях:
Гёц Георге / Götz George ... Graf - дублирует Юрий Демич
Рольф Хоппе / Rolf Hoppe ... Bruno Markward - Андрей Мартынов
Отто Зандер / Otto Sander ... Lubowitz - Владимир Прокофьев
Ульрике Крумбигель / Ulrike Krumbiegel ... Tina - Мария Володина
Йенс-Уве Богадтке / Jens-Uwe Bogadtke ... Biegel
Фолькер Раниш / Volker Ranisch ... Julian - Василий Маслаков
Томас Рудник / Thomas Rudnick ... Bubi - Валерий Немешаев
Герман Бейер / Hermann Beyer ... Kollmorgen - Рудольф Панков
Герхард Гэндель / Gerhard Hähndel ... Lotz
Рейнер Хейз / Reiner Heise ... Pinske - Вадим Андреев
Юрген Вальтер / Jürgen Walter ... Müller - Артем Карапетян
Ангелика Валлер / Angelika Waller ... Anita Graf - Ольга Гаспарова
Франциска Трёгнер / Franziska Troegner ... Frau Markward - Наталья Рычагова
Хильдегард Алекс / Hildegard Alex ... Tinas Wirtin
Хайнц-Дитер Кнауп / Heinz-Dieter Knaup ... Escheritz - Олег Мокшанцев
Клаус Манхен / Klaus Manchen ... Dombrowski - Юрий Саранцев
Описание: Берлин 1946 года полон хаоса, и иногда лишь случай решает, на чьей стороне оказываются главные герои. Три взломщика готовят серьёзную операцию, полицейские нападают на их след. Сами полицейские – пока новички в своём деле, но взломщики – тоже далеко не профи, чего так опасаются защитники правопорядка. И хотя операция удаётся, в конце концов все усилия оказываются напрасными...
Дополнительная информация: Релиз:
Автор рипа: pmv
Исходный немецкий DVD найден в сети.
Большое спасибо за:
- аудиодорожку с советским дубляжем ([url=viewtopic.php?t=1552099]http://torrentc/forum/viewtopic.php?t=1552099[/url]) – gera
- синхронизация звука - pmv
Фильм дублирован на киностудии им. М.Горького в 1990 году.
Режиссёр дубляжа: Елена Лунина
Звукооператор: Нина Кратенкова
Автор литературного перевода: Геннадий Петров
Редактор: Клавдия Никонова
Роли дублировали: Юрий Демич, Андрей Мартынов, Владимир Прокофьев, Мария Володина, Василий Маслаков, Валерий Немешаев, Рудольф Панков, Вадим Андреев, Артем Карапетян, Ольга Гаспарова, Наталья Рычагова, Олег Мокшанцев, Юрий Саранцев, Владимир Антоник
* В фильм режиссёр вмонтировал кадры кинохроники в чёрно-белом изображении.
IMDb = 6,6/10 (54) - http://www.imdb.com/title/tt0094804/
Кинопоиск = - (13) - https://www.kinopoisk.ru/film/141624/
ПРОСЬБА к СКАЧАВШИМ. НЕ УХОДИТЕ С РАЗДАЧИ, ПОМОГИТЕ ДРУГИМ СКАЧАТЬ!!!
ВНИМАНИЕ!!! РИП ФОРМАТА mkv (кодек H.264) ВОСПРОИЗВОДИТСЯ НЕ НА ВСЕХ БЫТОВЫХ ВИДЕОПЛЕЕРАХ!!!
Качество видео: DVDRip-AVC
Формат видео: MKV
Видео: AVC (H264), 704@757x568 (1.33:1), 25 fps, 1450 Kbps, 0.145 Bits/Pixel
Аудио #1: AC3, 48 KHz, stereo (2 ch), 192 Kbps – Советский дубляж
Аудио #2: AC3, 48 KHz, stereo (2 ch), 192 Kbps – немецкий

MediaInfo

General
Unique ID : 172439984871340043911318524849680880497 (0x81BABBA8FD8DE1F6B8D6EE5603191371)
Complete name : D:\torrents\Der Bruch (1989, rus_dub+ger).mkv
Format : Matroska
Format version : Version 4 / Version 2
File size : 1.45 GiB
Duration : 1h 53mn
Overall bit rate : 1 836 Kbps
Encoded date : UTC 2017-02-06 23:53:48
Writing application : mkvmerge v9.8.0 ('Kuglblids') 64bit
Writing library : libebml v1.3.4 + libmatroska v1.4.5
DURATION : 01:53:11.040000000
NUMBER_OF_FRAMES : 212220
NUMBER_OF_BYTES : 162984960
_STATISTICS_WRITING_APP : mkvmerge v9.8.0 ('Kuglblids') 64bit
_STATISTICS_WRITING_DATE_UTC : 2017-02-06 23:53:48
_STATISTICS_TAGS : BPS DURATION NUMBER_OF_FRAMES NUMBER_OF_BYTES
Video
ID : 1
Format : AVC
Format/Info : Advanced Video Codec
Format profile : High@L4.1
Format settings, CABAC : Yes
Format settings, ReFrames : 16 frames
Codec ID : V_MPEG4/ISO/AVC
Duration : 1h 53mn
Bit rate : 1 450 Kbps
Width : 704 pixels
Height : 568 pixels
Display aspect ratio : 4:3
Original display aspect ratio : 5:4
Frame rate mode : Constant
Frame rate : 25.000 fps
Color space : YUV
Chroma subsampling : 4:2:0
Bit depth : 8 bits
Scan type : Progressive
Bits/(Pixel*Frame) : 0.145
Stream size : 1.12 GiB (77%)
Writing library : x264 core 146 r2538 121396c
Encoding settings : cabac=1 / ref=16 / deblock=1:0:0 / analyse=0x3:0x133 / me=umh / subme=10 / psy=1 / psy_rd=1.00:0.00 / mixed_ref=1 / me_range=24 / chroma_me=1 / trellis=2 / 8x8dct=1 / cqm=0 / deadzone=21,11 / fast_pskip=1 / chroma_qp_offset=-2 / threads=42 / lookahead_threads=4 / sliced_threads=0 / nr=0 / decimate=1 / interlaced=0 / bluray_compat=0 / constrained_intra=0 / bframes=8 / b_pyramid=2 / b_adapt=2 / b_bias=0 / direct=3 / weightb=1 / open_gop=0 / weightp=2 / keyint=250 / keyint_min=25 / scenecut=40 / intra_refresh=0 / rc_lookahead=60 / rc=2pass / mbtree=1 / bitrate=1450 / ratetol=1.0 / qcomp=0.60 / qpmin=0 / qpmax=69 / qpstep=4 / cplxblur=20.0 / qblur=0.5 / ip_ratio=1.40 / aq=1:1.00
Language : German
Default : Yes
Forced : No
Audio #1
ID : 2
Format : AC-3
Format/Info : Audio Coding 3
Mode extension : CM (complete main)
Format settings, Endianness : Big
Codec ID : A_AC3
Duration : 1h 53mn
Bit rate mode : Constant
Bit rate : 192 Kbps
Channel(s) : 2 channels
Channel positions : Front: L R
Sampling rate : 48.0 KHz
Bit depth : 16 bits
Compression mode : Lossy
Stream size : 155 MiB (10%)
Language : Russian
Default : Yes
Forced : No
Audio #2
ID : 3
Format : AC-3
Format/Info : Audio Coding 3
Mode extension : CM (complete main)
Format settings, Endianness : Big
Codec ID : A_AC3
Duration : 1h 53mn
Bit rate mode : Constant
Bit rate : 192 Kbps
Channel(s) : 2 channels
Channel positions : Front: L R
Sampling rate : 48.0 KHz
Bit depth : 16 bits
Compression mode : Lossy
Stream size : 155 MiB (10%)
Language : German
Default : No
Forced : No

Скриншот c названием фильма

Сравнение с раздачей: gera от 14-Февраля-2009

[url=viewtopic.php?t=1552099]http://torrentc/forum/viewtopic.php?t=1552099[/url]
МОИ РАЗДАЧИ НА трекере: [url=tracker.php?rid=27390064]http://torrentc/forum/tracker.php?rid=27390064[/url]


[torrentc.info]_torrent-5353864.torrent
Торрент: Зарегистрирован ·  [ 2017-02-14 13:48 ] ·  dd3504f146f32a5ce57795635705bfdfebf6b497

15 KB

Статус: проверено
Скачан: 0 раз
Размер: 1.45 GB
Оценка: 
(Голосов: 0)
Сказали спасибо: 0  Спасибо
Похожие темы
[Профиль]    [ЛС]
Показать сообщения:    
Ответить на тему

Текущее время: Сегодня 00:37

Часовой пояс: GMT + 7



Вы не можете начинать темы
Вы не можете отвечать на сообщения
Вы не можете редактировать свои сообщения
Вы не можете удалять свои сообщения
Вы не можете голосовать в опросах
Вы не можете прикреплять файлы к сообщениям
Вы можете скачивать файлы