Пропавшие миллионы / Этот грязный негодяй Шейм / Самый неслыханный позор / A Low Down Dirty Shame (Кинен Айвори Уайанс / Keenen Ivory Wayans) [1994, США, боевик, комедия, WEB-DLRip] AVO (Василий Горчаков)

Ответить на тему
Статистика раздачи [Обновить пиров]
Размер:  1.45 GB   |    Зарегистрирован:  1 год 9 месяцев   |    Скачан:  0 раз

Полного источника не было: Никогда

 
   
 
 
 
Автор Сообщение

torrentc.info

Создавать темы 03-Мар-2017 08:05

[Цитировать]

Пропавшие миллионы / Этот грязный негодяй Шейм / Самый неслыханный позор / A Low Down Dirty Shame
Страна: США
Жанр: боевик, комедия
Год выхода: 1994
Продолжительность: 01:40:32
Перевод: Авторский (одноголосый закадровый) Василий Горчаков
Cубтитры: нет
Оригинальная аудиодорожка: нет
Режиссер: Кинен Айвори Уайанс / Keenen Ivory Wayans
В ролях: Кинен Айвори Уайанс, Чарльз С. Даттон, Джада Пинкетт Смит, Салли Ричардсон-Уитфилд, Эндрю Дивофф, Коруин Хоукинс
Описание: Бывший полицейский Шейм занимается опасными частными расследованиями, от ведения которых отказываются все прочие. Он всегда на линии огня и на дистанции удара, однако ему удаётся выходить живым из любых переделок.
Этими его качествами решил воспользоваться его старый друг, предложивший Шейму найти пропавшие миллионы. И все прошлые переделки оказываются детской забавой в сравнении с этим новым делом…
Доп. информация:
Источник: torrentc WEB-DL 1080p [url=viewtopic.php?t=5092328]http://torrentc/forum/viewtopic.php?t=5092328[/url], за который благодарим vedigo.
За звуковую дорожку с переводом В. Горчакова большое спасибо team_6strun.
За видеоряд и синхронизацию звуковой дорожки огромная благодарность xelon2006.
Сэмпл: https://www.sendspace.com/file/auzau4
Качество видео: WEB-DLRip
Формат файла: AVI
Видео: 720x384, 23.976 fps, MPEG-4 Visual, 1868 Kbps, XviD 73
Аудио: 48 KHz, AC3, 2 ch, 192 Kbps

MediaInfo

General
Complete name : C:\Users\Этот грязный негодяй Шейм.avi
Format : AVI
Format/Info : Audio Video Interleave
File size : 1.45 GiB
Duration : 1h 40mn
Overall bit rate : 2 069 Kbps
Writing application : VirtualDubMod 1.5.10.3 | www.virtualdub-fr.org || (build 2550/release)
Writing library : VirtualDub build 35491/release
Video
ID : 0
Format : MPEG-4 Visual
Format profile : Advanced Simple@L5
Format settings, BVOP : 1
Format settings, QPel : No
Format settings, GMC : No warppoints
Format settings, Matrix : Custom
Codec ID : XVID
Codec ID/Hint : XviD
Duration : 1h 40mn
Bit rate : 1 868 Kbps
Width : 720 pixels
Height : 384 pixels
Display aspect ratio : 1.85:1
Frame rate : 23.976 fps
Color space : YUV
Chroma subsampling : 4:2:0
Bit depth : 8 bits
Scan type : Progressive
Compression mode : Lossy
Bits/(Pixel*Frame) : 0.282
Stream size : 1.31 GiB (90%)
Writing library : XviD 73
Audio
ID : 1
Format : AC-3
Format/Info : Audio Coding 3
Mode extension : CM (complete main)
Format settings, Endianness : Big
Codec ID : 2000
Duration : 1h 40mn
Bit rate mode : Constant
Bit rate : 192 Kbps
Channel(s) : 2 channels
Channel positions : Front: L R
Sampling rate : 48.0 KHz
Bit depth : 16 bits
Compression mode : Lossy
Stream size : 138 MiB (9%)
Alignment : Aligned on interleaves
Interleave, duration : 42 ms (1.00 video frame)
Interleave, preload duration : 512 ms

Скриншоты



[torrentc.info]_t_5310274.torrent
Торрент: Зарегистрирован ·  [ 2017-03-03 07:54 ] ·  18facd95e48e07317ccec81eec597e022256e9a4

15 KB

Статус: проверено
Скачан: 0 раз
Размер: 1.45 GB
Оценка: 
(Голосов: 0)
Сказали спасибо: 0  Спасибо
Похожие темы
[Профиль]    [ЛС]
Показать сообщения:    
Ответить на тему

Текущее время: Сегодня 14:28

Часовой пояс: GMT + 7



Вы не можете начинать темы
Вы не можете отвечать на сообщения
Вы не можете редактировать свои сообщения
Вы не можете удалять свои сообщения
Вы не можете голосовать в опросах
Вы не можете прикреплять файлы к сообщениям
Вы можете скачивать файлы