Быть или не быть / To Be or Not to Be (Алан Джонсон / Alan Johnson) [1983, США, Комедия, Военный, VHSRip] [Full Screen] AVO (Василий Горчаков)

Ответить на тему
Статистика раздачи [Обновить пиров]
Размер:  1.37 GB   |    Зарегистрирован:  1 год 7 месяцев   |    Скачан:  0 раз

Полного источника не было: Никогда

 
   
 
 
 
Автор Сообщение

torrentc.info

Создавать темы 14-Фев-2017 13:48

[Цитировать]

Быть или не быть / To Be or Not to Be
«That is the movie!»
[Full Screen]
Страна: США
Жанр: Комедия, Военный
Год выпуска: 1983
Продолжительность: 01:43:01
Перевод: Авторский (одноголосый закадровый) Василий Горчаков
Cубтитры: нет
Режиссер: Алан Джонсон / Alan Johnson
В ролях: Мел Брукс, Энн Бэнкрофт, Тим Мэтисон, Чарльз Дёрнинг, Кристофер Ллойд, Хосе Феррер, Ронни Грэм, Эстелл Райнер, Зейл Кесслер, Джек Райли
Описание: Прекрасный римейк одноименного фильма 1942 года. По мнению критиков даже смешнее оригинала. Актеры польского театра помогают своему собрату, летчику польской эскадрильи, сброшенному с парашютом в оккупированную немцами Варшаву, убить предателя. В центре сюжета звезды театра - Мел Брукс и его жена Энн Бэнкрофт, в которую летчик был влюблен еще до войны. Бруксу приходится выдвавать себя за убитого, прибегнув к помощи своего сомнительного по фильму таланта, и водить за нос немцев, снятых в карикатурной, импонирующей манере. (Иванов М.)
Доп. информация: Оцифровка VHS (личный архив) и получение VHSRip alenavova
Эксклюзив для torrentc. При размещении данного релиза на других сайтах ссылка на автора
Релиз
Сэмпл: https://yadi.sk/i/AkMyDAXW3DhuxW
Качество видео: VHSRip
Формат видео: AVI
Видео: 704x528 (1.33:1), 25 fps, XviD build 73 ~1697 kbps avg, 0.18 bit/pixel
Аудио: 48 kHz, AC3 Dolby Digital, 2/0 (L,R) ch, ~192 kbps

MediaInfo

Быть или не быть - To Be or Not to Be [by alenavova].avi
Format : AVI
Format/Info : Audio Video Interleave
File size : 1.37 GiB
Duration : 1 h 43 min
Overall bit rate : 1 900 kb/s
Movie name : Быть или не быть - To Be or Not to Be [by alenavova]
Director : by alenavova
Writing application : VirtualDubMod 1.5.10.3 | www.virtualdub-fr.org || (build 2550/release)
Copyright : Edich2
Comment : torrentc
Video
ID : 0
Format : MPEG-4 Visual
Format profile : Advanced Simple@L5
Format settings, BVOP : 1
Format settings, QPel : No
Format settings, GMC : No warppoints
Format settings, Matrix : Custom
Codec ID : XVID
Codec ID/Hint : XviD
Duration : 1 h 43 min
Bit rate : 1 698 kb/s
Width : 704 pixels
Height : 528 pixels
Display aspect ratio : 4:3
Frame rate : 25.000 FPS
Color space : YUV
Chroma subsampling : 4:2:0
Bit depth : 8 bits
Scan type : Progressive
Compression mode : Lossy
Bits/(Pixel*Frame) : 0.183
Stream size : 1.22 GiB (89%)
Writing library : XviD 73
Audio
ID : 1
Format : AC-3
Format/Info : Audio Coding 3
Mode extension : CM (complete main)
Format settings, Endianness : Big
Codec ID : 2000
Duration : 1 h 43 min
Bit rate mode : Constant
Bit rate : 192 kb/s
Channel(s) : 2 channels
Channel positions : Front: L R
Sampling rate : 48.0 kHz
Frame rate : 31.250 FPS (1536 spf)
Bit depth : 16 bits
Compression mode : Lossy
Stream size : 141 MiB (10%)
Alignment : Split accross interleaves
Interleave, duration : 40 ms (1.00 video frame)
Interleave, preload duratio : 500 ms

Скриншоты




[torrentc.info]_torrent-5354935.torrent
Торрент: Зарегистрирован ·  [ 2017-02-14 13:48 ] ·  dca26560b104833f15f1a1c531857f37062be4e4

14 KB

Статус: проверено
Скачан: 0 раз
Размер: 1.37 GB
Оценка: 
(Голосов: 0)
Сказали спасибо: 0  Спасибо
Похожие темы
[Профиль]    [ЛС]
Показать сообщения:    
Ответить на тему

Текущее время: Сегодня 06:30

Часовой пояс: GMT + 7



Вы не можете начинать темы
Вы не можете отвечать на сообщения
Вы не можете редактировать свои сообщения
Вы не можете удалять свои сообщения
Вы не можете голосовать в опросах
Вы не можете прикреплять файлы к сообщениям
Вы можете скачивать файлы