Сведение счетов / Final Score (Аризаль / Arizal) [1986, Индонезия, Боевик, DVDRip] AVO (А. Кашкин) + Original Eng

Ответить на тему
Статистика раздачи [Обновить пиров]
Размер:  1.44 GB   |    Зарегистрирован:  1 год 7 месяцев   |    Скачан:  0 раз

Полного источника не было: Никогда

 
   
 
 
 
Автор Сообщение

torrentc.info

Создавать темы 14-Фев-2017 13:48

[Цитировать]

Сведение счетов / Final Score
Страна: Индонезия
Жанр: Боевик
Год выпуска: 1986
Продолжительность: 1:22:23
Перевод: Авторский (одноголосый закадровый) А. Кашкин (Первомайский)
Cубтитры: нет
Оригинальная аудиодорожка: английский
Режиссер: Аризаль / Arizal
В ролях: Кристофер Митчем
Майк Эбботт
Ida Iasha
Дикки Зулкарнэн
Зайнал Абидин
Siska Widowati
Nizar Zulmi
Айвон Элизабет
Андре Матиас
Gino Makasutji
Описание: Глава компьютерной фирмы, бывший герой вьетнамской войны Ричард Браун, стоит на пороге объединения с крупной компьютерной компанией. Однако другой делец компьютерного рынка, Хок, пытается предотвратить это слияние.
Браун игнорирует угрозы конкурента и тогда подручные Хока убивают его жену. Теперь Браун должен не только отстоять свое решение, но и отомстить Хоку
Доп. информация: Звуковую дорожку взял здесь [url=viewtopic.php?t=2488854]http://torrentc/forum/viewtopic.php?t=2488854[/url]
Видеоряд найден в сети
Сэмпл: https://yadi.sk/i/WisInpsh3DpgqD
Качество видео: DVDRip
Формат видео: AVI
Видео: XviD , 640x480 (1.33:1) , 25.000 fps , 2 096 Kbps
Аудио: AC3 , 48 kHz , 192.00 kbps avg , 2/0 (L,R) ch
Аудио 2: AC3 , 48 kHz , 192.00 kbps avg , 2/0 (L,R) ch

MediaInfo

Complete name Сведение счетов 1986 (Kashkin).avi
Format : AVI
Format/Info : Audio Video Interleave
File size : 1.44 GiB
Duration : 1h 22mn
Overall bit rate : 2 494 Kbps
Writing application : VirtualDubMod 1.5.10.3 | www.virtualdub-fr.org || (build 2550/release)
Writing library : VirtualDubMod build 2550/release
Video
ID : 0
Format : MPEG-4 Visual
Format profile : Advanced Simple@L5
Format settings, BVOP : 1
Format settings, QPel : No
Format settings, GMC : No warppoints
Format settings, Matrix : Custom
Codec ID : XVID
Codec ID/Hint : XviD
Duration : 1h 22mn
Bit rate : 2 096 Kbps
Width : 640 pixels
Height : 480 pixels
Display aspect ratio : 4:3
Frame rate : 25.000 fps
Color space : YUV
Chroma subsampling : 4:2:0
Bit depth : 8 bits
Scan type : Progressive
Compression mode : Lossy
Bits/(Pixel*Frame) : 0.273
Stream size : 1.21 GiB (84%)
Writing library : XviD 73
Audio #1
ID : 1
Format : AC-3
Format/Info : Audio Coding 3
Mode extension : CM (complete main)
Format settings, Endianness : Big
Codec ID : 2000
Duration : 1h 22mn
Bit rate mode : Constant
Bit rate : 192 Kbps
Channel(s) : 2 channels
Channel positions : Front: L R
Sampling rate : 48.0 KHz
Frame rate : 31.250 fps (1536 spf)
Compression mode : Lossy
Stream size : 113 MiB (8%)
Alignment : Split accross interleaves
Interleave, duration : 40 ms (1.00 video frame)
Interleave, preload duratio : 500 ms
Audio #2
ID : 2
Format : AC-3
Format/Info : Audio Coding 3
Mode extension : CM (complete main)
Format settings, Endianness : Big
Codec ID : 2000
Duration : 1h 22mn
Bit rate mode : Constant
Bit rate : 192 Kbps
Channel(s) : 2 channels
Channel positions : Front: L R
Sampling rate : 48.0 KHz
Frame rate : 31.250 fps (1536 spf)
Compression mode : Lossy
Stream size : 113 MiB (8%)
Alignment : Split accross interleaves
Interleave, duration : 40 ms (1.00 video frame)
Interleave, preload duratio : 500 ms


[torrentc.info]_torrent-5355426.torrent
Торрент: Зарегистрирован ·  [ 2017-02-14 13:48 ] ·  684ce32de01a214495b396f16ad9e2e220a8bd9c

15 KB

Статус: проверено
Скачан: 0 раз
Размер: 1.44 GB
Оценка: 
(Голосов: 0)
Сказали спасибо: 0  Спасибо
Похожие темы
[Профиль]    [ЛС]
Показать сообщения:    
Ответить на тему

Текущее время: Сегодня 13:09

Часовой пояс: GMT + 7



Вы не можете начинать темы
Вы не можете отвечать на сообщения
Вы не можете редактировать свои сообщения
Вы не можете удалять свои сообщения
Вы не можете голосовать в опросах
Вы не можете прикреплять файлы к сообщениям
Вы можете скачивать файлы