Алла Пугачева - Сны о любви (Юбилейный концерт в Кремлёвском Дворце) [2009, Pop, HDTVRip]

Reply to topic
DL-List and Torrent activity [Update пиров]
Size:  1.86 GB   |    Registered:  2 years 11 months   |    Completed:  0 times

Seeder not seen: Never

 
   
 
 
 
Author Message

Мых

Post 02-Mar-2017 09:14

[Quote]

Алла Пугачева - Сны о любви (Юбилейный концерт в Кремлёвском Дворце)
Страна: Россия
Жанр: Pop
Продолжительность: 02:05:17
Год выхода: 2009 г.
Описание: Юбилейный концерт Аллы Пугачевой в Кремлевском Дворце.
Специально для этого грандиозного шоу Борис Краснов сделал уникальные декорации: сны певицы будут отражаться в некоем зеркальном трехмерном пространстве.
Сценические наряды созданы Валентином Юдашкиным.

Треклист

01. Я пою
02. Не плачь
03. Не сгорю
04. Одуванчик
05. Алло
06. Речной трамвайчик
07. Ресницы
08. Люди
09. Ты моя любовь... последняя
10. Она цеплялась за любовь...
11. Любовь
12. 1000 лет
13. Зона
14. Ты там,я там
15. Позови меня с собой
16. Айсберг
17. Без меня
18. Возвращение
19. Любовь как состояние
20. Первое слово
21. Свеча горела
22. Опять метель
23. Звезда
24. Спасибо, любовь
25. Исчезнет грусть
26. Примадонна
27. Я улетаю
Источник: torrentc: [url=viewtopic.php?t=5209236]HDTV 1080i[/url]
Качество: HDTVRip
Формат файла: AVI
Видео кодек: XviD
Аудио кодек: MP3
Видео: Xvid 720x400 (16:9) 25fps 1950kbps
Аудио: MP3 48000Hz stereo 160kbps

MI

Format : AVI
Format/Info : Audio Video Interleave
Format profile : OpenDML
File size : 1.86 GiB
Duration : 2h 5mn
Overall bit rate : 2 123 Kbps
Writing application : Lavf56.15.102
Video
ID : 0
Format : xvid
Codec ID : xvid
Duration : 2h 5mn
Bit rate : 1 950 Kbps
Width : 720 pixels
Height : 400 pixels
Display aspect ratio : 16:9
Frame rate : 25.000 fps
Bits/(Pixel*Frame) : 0.271
Stream size : 1.71 GiB (92%)
Audio
ID : 1
Format : MPEG Audio
Format version : Version 1
Format profile : Layer 3
Mode : Joint stereo
Mode extension : MS Stereo
Codec ID : 55
Codec ID/Hint : MP3
Duration : 2h 5mn
Bit rate mode : Constant
Bit rate : 160 Kbps
Channel(s) : 2 channels
Sampling rate : 48.0 KHz
Compression mode : Lossy
Stream size : 143 MiB (8%)
Alignment : Aligned on interleaves
Interleave, duration : 24 ms (0.60 video frame)
Interleave, preload duration : 24 ms

Скриншоты



[geo-torrent.biz]_t_5209361.torrent
Torrent: Registered ·  [ 2017-03-02 09:12 ] ·  6e0be08aa913acf52bd6b22b20b696cdb82323d1

19 KB

Status: checked
Completed: 0 times
Size: 1.86 GB
Rating: 
(Votes: 0)
Say thanks: 0  Thanks
Похожие темы
[Profile]    [PM]
Display posts from previous:    
Reply to topic

The time now is: Today 18:33

All times are GMT + 7 Hours



You cannot post new topics in this forum
You cannot reply to topics in this forum
You cannot edit your posts in this forum
You cannot delete your posts in this forum
You cannot vote in polls in this forum
You cannot attach files in this forum
You can download files in this forum