[iPhone] Драконий жемчуг БП / Dragon Ball GT (Касай Осаму / Kasai Osamu) (Сезон 3, серии с 1 по 64 из 64 + Special) [1996, приключения, комедия, фэнтези, сёнэн, DVDRip, 480x368]

Ответить на тему
Статистика раздачи [Обновить пиров]
Размер:  12.07 GB   |    Зарегистрирован:  1 год 9 месяцев   |    Скачан:  0 раз

Полного источника не было: Никогда

 
   
 
 
 
Автор Сообщение

torrentc.info

Создавать темы 21-Фев-2017 08:25

[Цитировать]

Драконий жемчуг БП-
Оригинальное название: ドラゴンボールGT
Английское название: Dragon Ball GT-Год выхода:
1996
Страна: Япония
Жанр:приключения, комедия, фэнтези, сёнэн
Продолжительность: 64 эп. по 24 мин-Перевод : Субтитры
Субтитры: -Дата выхода: c 07.02.1996 по 19.11.1997
Количество серий: 64 из 64-Режиссёр: Касай Осаму
Студия: -Описание: Прошло несколько лет после событий Dragon Ball Z, и ещё больше первого Dragon Ball. Самый первый враг Гоку использовал особенные Драгон Боллы и случайно пожелал, чтобы Гоку снова стал мелким. Чтобы вернуть себе свой прежний возраст и не позволить разрушится Земле, Гоку вместе с сыном Бульмы Транксом и внучкой Пан, которая выглядит старше дедушки, отправляется в новое путешествие по Галактике в поисках Dragon Ball...
Новые приключения, друзья и враги - всё это Dragon Ball GT, который по сути является филлером сериала Dragon Ball для фанатов, но не лишён своего очарования. Взять хотя бы то, что не слишком там всё и затянуто.
Сериал оценивался низко из-за отсутствия перевода. Здесь собранны все серии с РУССКИМИ субтитрами.
З.Ы.Описание написано лично автором раздачи
-[url=viewtopic.php?t=2168367] [/url] || || || -Качество: DVDRip
Формат файла: *.m4v
Видео кодек: H.264
Аудио кодек: ААС
Разрешение: 480х368
Другие параметры видео: 896 Кбит/сек, 4:3, 23,976 кадр/сек
Аудио : 160 Кбит/сек, 2 канала(ов), 48,0 КГц
Вшитая обложка: есть
Доп. теги (режиссёр, актёры и т.д.): есть
Телешоу/видеоклип : есть
Главы: нет
Серия/сезон: есть
Список серий:01. The mysterious Dragon balls appear!! Son Goku becomes a child!?
02. I am the Leader! Pan Flies into Space!!
03. The Ultimate Moneygrubbers!! Imegga, Planet of Merchants
04. Wanted!! Goku is a criminal!?
05. See, the Strong Guy!! The Bodyguard Rejjik
06. It hurts, eh!? Goku the dentist
07. Beloved Honey!? The Betrothed is Trunks
08. Son Goku also Thunders!! The Whiskers` Power is at Full
09. Damn!! Goku Leaps into the Trap Planet!?
10. Dance Attack!? Boom-shakalaka!!
11. The Curse of Ruudo!? Pan turns into a Doll
12. The Oracle of God is REALLY Troublesome!! Soldier Ruudo
13. This is Father and Son? The Riddle of Scientist Myuu
14. Can We Get the Rhythm Down Perfectly!? Capture Ruudo!!
15. "I Can`t Take Anymore!!" Pan Runs Away!?
16. Machine Planet M2... Gill the Backstabber!?
17. Waiting for Pan!! The Tactical Strike to Rescue Son Goku!!
18. Yo, Some Data is Missing!! Son Goku`s Ultimate True Determination
19. Set Out and Attack!! The Mighty Mutant Rirudo
20. Surprise!! Goku`s Attacked By a Metal Storm
21. What is this!! Goku is Turned to Metal
22. Violent Ambition!! Birth of the Evil `Bebi`
23. A Hidden Crisis? A Spacewrecked and Mysterious Boy
24. Bebi`s Counterattack!! Target the Saiya-jin!!
25. Oh no!! Bebi Has Appeared on Earth
26. Gohan and Goten... The Worst Brotherly Spat!?
27. Ambition Achieved!? Vejita Possessed
28. Goku Returns... "All of Earth is My Enemy!?"
29. This is Really Bad!? Supper Saiya-jin 3 Fails!!
30. Goku Has Passed On!? "I`m Dead"
31. What the...!? The Sky of Suguro-ku Studio is Collapsing
32. Goku Returns!! Angry Fighter Uubu
33. Eat This, Bebi! New Uubu`s Killing Light Ray!!
34. The Transformation Fails? Giant Ape Goku`s Rampage
35. Final Strength! Goku Becomes Super Saiya-jin 4!!
36. Immortal Monster!? Atrocious Giant Monkey Bebi
37. Bebi and Goku -- Double KO!!
38. From Everyone`s Power... The Revival of Super Goku 4
39. This is How it Ends! At Last, Bebi`s Extinction
40. Earth Explodes!! Piccolo`s Serious Determination
41. Tenkai-Ichi Budoukai.Who Will Be Satans Successor?
Special: Goku Gaiden! A Hero's Legacy
42. Die, Son Goku!! The Revived Strong Enemies Escape From Hell
43. Hell`s Devil Fighters!! The Revival of Cell and Freezer
44. The Ultimate Android! The Two #17s Unite
45. Hurry, Goku!! The Plan to Escape From Hell
46. Crash!! SSJ4 vs Super #17
47. The Big Reversal! Son Goku`s and #18`s 2-Step Attack Explosion
48. This is a Surprise! Shenron is the Enemy?!
49. The Strongest Enemy!? The Fear of the Underhanded-Trick Using Dragon
50. Saiya-jin Power Dies in Honorable Defeat!? Electrical Fighter Uu Shinlon
51. Ryuu Shinlon! Looking for the Big Tornado Attack`s Weak Point
52. Pan, Look Out! To be Possessed by Chii-Shenron
53. Pan Dies!? The Tears of 10x`s Kamehame-ha
54. 6000 Degree Celsius Power! The Fighter of the Sun
55. Bulma Begins Working on Vejita`s Makeover Plan!
56. After the Sun, Comes the Freeze! The Fire and Ice
57. The Overwhelmingly Strong Enemy!! The Ruling Evil
58. Counterattack Returned! Super 4 is Surpassed
59. Friend? Foe?... Were-monkey Vejita on the Rampage
60. Fu--sion!! The Ultimate Super Gojita
61. I WILL Win!! Goku Swallows the #4 Dragonball
62. To the Rescue!! Goku`s Final Assistant Appears
63. The Miracle Turnaround Victory!! Son Goku Pleads with the Galaxy for Help
64. Goodbye, Goku... Till the Day We Meet Again

MediaInfo

Format                                   : MPEG-4
Format profile                           : Base Media / Version 2
Codec ID                                 : mp42
File size                                : 186 MiB
Duration                                 : 24mn 38s
Overall bit rate mode                    : Variable
Overall bit rate                         : 1 056 Kbps
Album                                    : Драконий жемчуг БП
Genre                                    : Adventure
Recorded date                            : 1996
Encoded date                             : UTC 2012-06-06 21:54:13
Tagged date                              : UTC 2012-07-16 07:01:35
Writing application                      : HandBrake 0.9.6 2012022800
Cover                                    : Yes
iTunMOVI                                 :  /  /  /  /  directors /   /    /    name /    Касай Осаму /    /   /  /
tvsh                                     : Драконий жемчуг БП
tvsn                                     : 3
desc                                     : Прошло несколько лет после событий Dragon Ball Z, и ещё больше первого Dragon Ball. Самый первый враг Гоку использовал особенные Драгон Боллы и случайно пожелал, чтобы Гоку снова стал мелким.
ldes                                     : Прошло несколько лет после событий Dragon Ball Z, и ещё больше первого Dragon Ball. Самый первый враг Гоку использовал особенные Драгон Боллы и случайно пожелал, чтобы Гоку снова стал мелким. Чтобы вернуть себе свой прежний возраст и не позволить разрушится Земле, Гоку вместе с сыном Бульмы Транксом и внучкой Пан, которая выглядит старше дедушки, отправляется в новое путешествие по Галактике в поисках Dragon Ball...
stik                                     : 10
Video
ID                                       : 1
Format                                   : AVC
Format/Info                              : Advanced Video Codec
Format profile                           : Baseline@L3.0
Format settings, CABAC                   : No
Format settings, ReFrames                : 4 frames
Codec ID                                 : avc1
Codec ID/Info                            : Advanced Video Coding
Duration                                 : 24mn 38s
Bit rate mode                            : Variable
Bit rate                                 : 896 Kbps
Width                                    : 480 pixels
Height                                   : 368 pixels
Display aspect ratio                     : 4:3
Frame rate mode                          : Variable
Frame rate                               : 23.976 fps
Minimum frame rate                       : 11.905 fps
Maximum frame rate                       : 24.390 fps
Color space                              : YUV
Chroma subsampling                       : 4:2:0
Bit depth                                : 8 bits
Scan type                                : Progressive
Bits/(Pixel*Frame)                       : 0.212
Stream size                              : 157 MiB (84%)
Writing library                          : x264 core 120
Encoding settings                        : cabac=0 / ref=4 / deblock=1:0:0 / analyse=0x1:0x131 / me=umh / subme=6 / psy=1 / psy_rd=0.00:0.00 / mixed_ref=1 / me_range=16 / chroma_me=1 / trellis=0 / 8x8dct=0 / cqm=0 / deadzone=21,11 / fast_pskip=0 / chroma_qp_offset=0 / threads=6 / sliced_threads=0 / nr=0 / decimate=1 / interlaced=0 / bluray_compat=0 / constrained_intra=0 / bframes=0 / weightp=0 / keyint=240 / keyint_min=24 / scenecut=40 / intra_refresh=0 / rc_lookahead=40 / rc=2pass / mbtree=1 / bitrate=896 / ratetol=1.0 / qcomp=0.60 / qpmin=3 / qpmax=69 / qpstep=4 / cplxblur=20.0 / qblur=0.5 / vbv_maxrate=1500 / vbv_bufsize=2000 / nal_hrd=none / ip_ratio=1.40 / aq=1:1.00
Encoded date                             : UTC 2012-06-06 21:54:13
Tagged date                              : UTC 2012-06-06 21:58:10
Color primaries                          : BT.601-6 525, BT.1358 525, BT.1700 NTSC, SMPTE 170M
Transfer characteristics                 : BT.709-5, BT.1361
Matrix coefficients                      : BT.601-6 525, BT.1358 525, BT.1700 NTSC, SMPTE 170M
Audio
ID                                       : 2
Format                                   : AAC
Format/Info                              : Advanced Audio Codec
Format profile                           : LC
Codec ID                                 : 40
Duration                                 : 24mn 38s
Bit rate mode                            : Variable
Bit rate                                 : 160 Kbps
Maximum bit rate                         : 392 Kbps
Channel(s)                               : 2 channels
Channel positions                        : Front: L R
Sampling rate                            : 48.0 KHz
Compression mode                         : Lossy
Stream size                              : 28.2 MiB (15%)
Language                                 : Japanese
Encoded date                             : UTC 2012-06-06 21:54:13
Tagged date                              : UTC 2012-06-06 21:58:09
Text
ID                                       : 3
Format                                   : Timed text
Muxing mode                              : sbtl
Codec ID                                 : tx3g
Duration                                 : 22mn 24s
Bit rate mode                            : Variable
Bit rate                                 : 71 bps
Stream size                              : 11.7 KiB (0%)
Language                                 : Russian
Encoded date                             : UTC 2012-06-06 21:54:13
Tagged date                              : UTC 2012-06-06 21:58:00

Скриншоты

- Группы:


[torrentc.info]_t_4126968.torrent
Торрент: Зарегистрирован ·  [ 2017-02-21 08:24 ] ·  3a1e14d01d70e4186dddc2279c537c9d1343dcc1

22 KB

Статус: проверено
Скачан: 0 раз
Размер: 12.07 GB
Оценка: 
(Голосов: 0)
Сказали спасибо: 0  Спасибо
Похожие темы
[Профиль]    [ЛС]
Показать сообщения:    
Ответить на тему

Текущее время: Сегодня 23:11

Часовой пояс: GMT + 7



Вы не можете начинать темы
Вы не можете отвечать на сообщения
Вы не можете редактировать свои сообщения
Вы не можете удалять свои сообщения
Вы не можете голосовать в опросах
Вы не можете прикреплять файлы к сообщениям
Вы можете скачивать файлы