[iPhone] Мобильный воин ГАНДАМ: Судьба поколения / Mobile Suit Gundam Seed Destiny (Фукуда Мицуо / Fukuda Mitsuo) (Серии с 1 по 50 из 50) [2004, приключения, фантастика, меха, драма, DVDRip, 480x368]

Ответить на тему
Статистика раздачи [Обновить пиров]
Размер:  11.86 GB   |    Зарегистрирован:  1 год 9 месяцев   |    Скачан:  0 раз

Полного источника не было: Никогда

 
   
 
 
 
Автор Сообщение

torrentc.info

Создавать темы 21-Фев-2017 08:25

[Цитировать]

Мобильный воин ГАНДАМ: Судьба поколения-
Оригинальное название: 機動戦士ガンダムSEED DESTINY
Английское название: Mobile Suit Gundam Seed Destiny-Год выхода:
2004
Страна: Япония
Жанр:приключения, фантастика, меха, драма
Продолжительность: 50 эп., ~24 мин., 51-й эп. "Final Plus" - 46 мин.-Перевод : Любительский Одноголосый Animebest (1-50)
Перевод : Любительский Одноголосый Azazel (1-34, 36-50)
Субтитры: -Дата выхода: c 09.10.2004 по 01.10.2005
Количество серий: 50 из 50-Режиссёр: Фукуда Мицуо
Студия: -Описание: Космическая Эра, год 70, трагедия "Кровавого Валентина" переросла в войну между Земным Альянсом и ZAFT. Ценой многих жертв было достигнуто перемирие после второй битвы у Yakin Due. Но этот шаткий мир не полностью искоренил конфликты между Натуралами и Координаторами.
Во время войны Шинн Асука пострадал при вторжении Земного Альянса в государство Орб. В огне конфликта, прямо на его глазах, погибли его родители и младшая сестра. В то время когда он находился в шоке и сжимал в руке сотовый младшей сестры, ставший единственным напоминанием о ней, в небе над ним воевал Гандам, бывший главной причиной всей этой войне. Разочаровавшись в принципах Орба он покинул его и подался в PLANT.
В 73 году Космической Эры он стал солдатом ZAFT'а...
-[url=viewtopic.php?t=3040361] [/url] || || || -Качество: DVDRip
Формат файла: *.m4v
Видео кодек: H.264
Аудио кодек: ААС
Разрешение: 480х368
Другие параметры видео: 896 Кбит/сек, 4:3, 23,976 кадр/сек
Аудио : 160 Кбит/сек, 2 канала(ов), 48,0 КГц
Аудио : 160 Кбит/сек, 2 канала(ов), 48,0 КГц
Аудио : 160 Кбит/сек, 2 канала(ов), 48,0 КГц
Вшитая обложка: есть
Доп. теги (режиссёр, актёры и т.д.): есть
Телешоу/видеоклип : есть
Главы: нет
Серия/сезон: не требуется
Список серий:01. Angered Eye
02. Calling for a Battle
03. Ominous Gunfire
04. Battlefield Of Stardust
05. Unhealable Scar
06. The World's Last Moments
07. Earth in Chaos
08. Junction
09. Prideful Fang
10. Father's Curse
11. The Chosen Path
12. Sea Dyed in Blood
13. Resurrected Wings
14. The Journey Towards Tomorrow
15. The Return to the Battlefield
16. The Battle in the Indian Ocean
17. Soldier's Terms
18. Attack Lohengrin!
19. The Unseen Truth
20. Past
21. Roaming Eyes
22. The Sword of the Azure Sky
23. War's Shadow
24. Passing Each Others' Sights
25. Location of the Crime
26. Promise
27. Unreachable Feelings
28. Remaining Life, Scattered Life
29. Fates
30. Instant Dream
31. The Neverending Night
32. Stellar
33. Revelation for the World
34. Nightmare
35. Chaos Ahead
36. Athrun Deserts
37. The Darkness of Thunder
38. A New Flag
39. Kira of the Sky
40. The Golden Purpose
41. Refrain
42. Freedom and Justice
43. Counteroffensive Voice
44. Two Lacus
45. Prelude to Revolution
46. The Song of Truth
45. Revolutionary Overture
46. The Song of Truth
47. Meer
48. To A New World
49. Rey
50. The Final Power
Эпизод-коллаж:
Kidou Senshi Gundam SEED Destiny EDITED (29.01.2005)

MediaInfo

Format                                   : MPEG-4
Format profile                           : Base Media / Version 2
Codec ID                                 : mp42
File size                                : 236 MiB
Duration                                 : 23mn 52s
Overall bit rate mode                    : Variable
Overall bit rate                         : 1 381 Kbps
Album                                    : Мобильный воин ГАНДАМ: Судьба поколения
Genre                                    : Adventure
Recorded date                            : 2004
Encoded date                             : UTC 2012-09-19 06:03:48
Tagged date                              : UTC 2012-09-29 08:16:11
Writing application                      : HandBrake 0.9.6 2012022800
Cover                                    : Yes
iTunMOVI                                 :  /  /  /  /  directors /   /    /    name /    Фукуда Мицуо /    /   /  /
tvsh                                     : Мобильный воин ГАНДАМ: Судьба поколения
desc                                     : Космическая Эра, год 70, трагедия "Кровавого Валентина" переросла в войну между Земным Альянсом и ZAFT. Ценой многих жертв было достигнуто перемирие после второй битвы у Yakin Due. Но этот шаткий мир не полностью искоренил конфликты между Натуралами и Координаторами.
ldes                                     : Космическая Эра, год 70, трагедия "Кровавого Валентина" переросла в войну между Земным Альянсом и ZAFT. Ценой многих жертв было достигнуто перемирие после второй битвы у Yakin Due. Но этот шаткий мир не полностью искоренил конфликты между Натуралами и Координаторами. /  Во время войны Шинн Асука пострадал при вторжении Земного Альянса в государство Орб. В огне конфликта, прямо на его глазах, погибли его родители и младшая сестра. В то время когда он находился в шоке и сжимал в руке сотовый младшей сестры, ставший единственным напоминанием о ней, в небе над ним воевал Гандам, бывший главной причиной всей этой войне. Разочаровавшись в принципах Орба он покинул его и подался в PLANT. /  В 73 году Космической Эры он стал солдатом ZAFT'а...
stik                                     : 10
Video
ID                                       : 1
Format                                   : AVC
Format/Info                              : Advanced Video Codec
Format profile                           : Baseline@L3.0
Format settings, CABAC                   : No
Format settings, ReFrames                : 4 frames
Codec ID                                 : avc1
Codec ID/Info                            : Advanced Video Coding
Duration                                 : 23mn 52s
Bit rate mode                            : Variable
Bit rate                                 : 896 Kbps
Width                                    : 480 pixels
Height                                   : 368 pixels
Display aspect ratio                     : 4:3
Frame rate mode                          : Variable
Frame rate                               : 23.976 fps
Minimum frame rate                       : 17.857 fps
Maximum frame rate                       : 30.303 fps
Color space                              : YUV
Chroma subsampling                       : 4:2:0
Bit depth                                : 8 bits
Scan type                                : Progressive
Bits/(Pixel*Frame)                       : 0.212
Stream size                              : 153 MiB (65%)
Writing library                          : x264 core 120
Encoding settings                        : cabac=0 / ref=4 / deblock=1:0:0 / analyse=0x1:0x131 / me=umh / subme=6 / psy=1 / psy_rd=0.00:0.00 / mixed_ref=1 / me_range=16 / chroma_me=1 / trellis=0 / 8x8dct=0 / cqm=0 / deadzone=21,11 / fast_pskip=0 / chroma_qp_offset=0 / threads=6 / sliced_threads=0 / nr=0 / decimate=1 / interlaced=0 / bluray_compat=0 / constrained_intra=0 / bframes=0 / weightp=0 / keyint=240 / keyint_min=24 / scenecut=40 / intra_refresh=0 / rc_lookahead=40 / rc=2pass / mbtree=1 / bitrate=896 / ratetol=1.0 / qcomp=0.60 / qpmin=3 / qpmax=69 / qpstep=4 / cplxblur=20.0 / qblur=0.5 / vbv_maxrate=1500 / vbv_bufsize=2000 / nal_hrd=none / ip_ratio=1.40 / aq=1:1.00
Encoded date                             : UTC 2012-09-19 06:03:48
Tagged date                              : UTC 2012-09-19 06:09:51
Color primaries                          : BT.601-6 525, BT.1358 525, BT.1700 NTSC, SMPTE 170M
Transfer characteristics                 : BT.709-5, BT.1361
Matrix coefficients                      : BT.601-6 525, BT.1358 525, BT.1700 NTSC, SMPTE 170M
Audio #1
ID                                       : 2
Format                                   : AAC
Format/Info                              : Advanced Audio Codec
Format profile                           : LC
Codec ID                                 : 40
Duration                                 : 23mn 52s
Bit rate mode                            : Variable
Bit rate                                 : 160 Kbps
Maximum bit rate                         : 280 Kbps
Channel(s)                               : 2 channels
Channel positions                        : Front: L R
Sampling rate                            : 48.0 KHz
Compression mode                         : Lossy
Stream size                              : 27.3 MiB (12%)
Language                                 : Japanese
Encoded date                             : UTC 2012-09-19 06:03:48
Tagged date                              : UTC 2012-09-19 06:09:50
Audio #2
ID                                       : 3
Format                                   : AAC
Format/Info                              : Advanced Audio Codec
Format profile                           : LC
Codec ID                                 : 40
Duration                                 : 23mn 52s
Bit rate mode                            : Variable
Bit rate                                 : 160 Kbps
Maximum bit rate                         : 231 Kbps
Channel(s)                               : 2 channels
Channel positions                        : Front: L R
Sampling rate                            : 48.0 KHz
Compression mode                         : Lossy
Stream size                              : 27.3 MiB (12%)
Language                                 : Russian
Encoded date                             : UTC 2012-09-19 06:03:48
Tagged date                              : UTC 2012-09-19 06:09:50
Audio #3
ID                                       : 4
Format                                   : AAC
Format/Info                              : Advanced Audio Codec
Format profile                           : LC
Codec ID                                 : 40
Duration                                 : 23mn 52s
Bit rate mode                            : Variable
Bit rate                                 : 160 Kbps
Maximum bit rate                         : 275 Kbps
Channel(s)                               : 2 channels
Channel positions                        : Front: L R
Sampling rate                            : 48.0 KHz
Compression mode                         : Lossy
Stream size                              : 27.3 MiB (12%)
Language                                 : Russian
Encoded date                             : UTC 2012-09-19 06:03:48
Tagged date                              : UTC 2012-09-19 06:09:50
Text #1
ID                                       : 5
Format                                   : Timed text
Muxing mode                              : sbtl
Codec ID                                 : tx3g
Duration                                 : 23mn 50s
Source duration                          : 13h 39mn
Bit rate mode                            : Variable
Bit rate                                 : 7 bps
Stream size                              : 1.17 KiB (0%)
Source stream size                       : 55.1 KiB (0%)
Language                                 : English
Encoded date                             : UTC 2012-09-19 06:03:48
Tagged date                              : UTC 2012-09-19 06:09:50
mdhd_Duration                            : 1430660
Text #2
ID                                       : 6
Format                                   : Timed text
Muxing mode                              : sbtl
Codec ID                                 : tx3g
Duration                                 : 22mn 7s
Bit rate mode                            : Variable
Bit rate                                 : 18 bps
Stream size                              : 2.99 KiB (0%)
Language                                 : Russian
Encoded date                             : UTC 2012-09-19 06:03:48
Tagged date                              : UTC 2012-09-19 06:09:35

Скриншоты

- Группы:
?


[torrentc.info]_t_4199666.torrent
Торрент: Зарегистрирован ·  [ 2017-02-21 08:24 ] ·  5c0e998e39280e40137999070684baa9cfe8e850

23 KB

Статус: проверено
Скачан: 0 раз
Размер: 11.86 GB
Оценка: 
(Голосов: 0)
Сказали спасибо: 0  Спасибо
Похожие темы
[Профиль]    [ЛС]
Показать сообщения:    
Ответить на тему

Текущее время: Сегодня 22:35

Часовой пояс: GMT + 7



Вы не можете начинать темы
Вы не можете отвечать на сообщения
Вы не можете редактировать свои сообщения
Вы не можете удалять свои сообщения
Вы не можете голосовать в опросах
Вы не можете прикреплять файлы к сообщениям
Вы можете скачивать файлы