[iPad] Оборотни (Волчья стая) / Jin-Roh (Jin-Roh: The Wolf Brigade) / (Хироюки Окиура/ Hiroyuki Okiura) [1999, Япония, Драма, триллер, фантастика, BDRip, 576p] MVO MC Entertainment + VO + Original + rus sub

Ответить на тему
Статистика раздачи [Обновить пиров]
Размер:  2 GB   |    Зарегистрирован:  1 год 9 месяцев   |    Скачан:  1 раз

Полного источника не было: 13 дней

 
   
 
 
 
Автор Сообщение

torrentc.info

Создавать темы 21-Фев-2017 08:25

[Цитировать]

Оборотни (Волчья стая) / Jin-Roh (Jin-Roh: The Wolf Brigade)
«Из волчьей стаи не выбраться...»
Год выхода: 1999
Страна: Япония
Студия: Production I.G., Bandai Visual Co. Ltd.
Жанр: Драма, триллер, фантастика
Продолжительность: 01:42:12
Перевод 1: Профессиональный (многоголосый закадровый) MC Entertainment
Перевод 2: Профессиональный одноголосый
Оригинальная аудиодорожка: есть
Cубтитры: русские
Режиссёр: Хироюки Окиура
Сценарий: Мамору Осии, Роберт Хомяк
Продюссер: Цутому Сугита, Hidekazu Terakawa, Митсухиса Исикава
В ролях: Есикацу Фудзики, Суми Муто, Хироюки Киносита, Косэй Хирота, Юкихиро Есида, Рюйти Хорибэ, Эри Сэндай, Кэндзи Накагава, Тамио Оки, Есисада Сакагути
Тип: полнометражный фильм
Описание:
На одном из заданий спецназовец Фусэ из элитного "Бронеотряда Церберы" невольно становится причиной гибели юной террористки. Девушка взрывает себя у него на глазах. А вскоре он, казалось бы, случайно знакомится с её старшей сестрой, и у них начинается роман... Роман, похожий на страшную сказку о Красной Шапочке, старинную книгу с которой дарит Фусе его новая подруга. И с каждой прочитанной страницей мир вокруг них начинает меняться и рушиться. Водоворот событий - обман и неотличимая от обмана правда, предательство и политические интриги, сны и галлюцинации, хищники и жертвы - все вместе выплескивается в трагический финал, лишний раз доказывающий, что наиболее опасное из всех животных - человек.
Доп. информация:

Качество Источник: Torrentc.orgа: BDRemux - Оборотни (Волчья стая) / Jin-Roh (Jin-Roh: The Wolf Brigade) / 2000 / ПМ, ПО, СТ / Blu-Ray Remux (1080p)
Качество: BDRip
Разрешение: 1024х560
Формат файла: MP4
Видео: H.264,1,85:1 , 2200kbit/s; 23.976fps
Аудио 1: Russian/MVO, AAC, 132kbit/s; 2ch; 48KHz
Аудио 2: Russian/VO, AAC, 161kbit/s; 2ch; 48KHz
Аудио 3: English/Dub, AAC, 141kbit/s; 2ch; 48KHz
Аудио 4: Japanese/Original, AAC, 139kbit/s; 2ch; 48KHz

iTunes Meta Tags

Media Type: MovieXID: Apple:vendor_id:1999-8239Content ID: 8239ScreenWriters: Мамору Осии, Роберт ХомякProducers: Цутому Сугита, Hidekazu Terakawa, Митсухиса ИсикаваDirector: Хироюки ОкиураCast: Есикацу Фудзики, Суми Муто, Хироюки Киносита, Косэй Хирота, Юкихиро Есида, Рюйти Хорибэ, Эри Сэндай, Кэндзи Накагава, Тамио Оки, Есисада СакагутиRating: RLong Description: На одном из заданий спецназовец Фусэ из элитного "Бронеотряда Церберы" невольно становится причиной гибели юной террористки. Девушка взрывает себя у него на глазах. А вскоре он, казалось бы, случайно знакомится с её старшей сестрой, и у них начинается роман... Роман, похожий на страшную сказку о Красной Шапочке, старинную книгу с которой дарит Фусе его новая подруга. И с каждой прочитанной страницей мир вокруг них начинает меняться и рушиться. Водоворот событий - обман и неотличимая от обмана правда, предательство и политические интриги, сны и галлюцинации, хищники и жертвы - все вместе выплескивается в трагический финал, лишний раз доказывающий, что наиболее опасное из всех животных - человек.Description: На одном из заданий спецназовец Фусэ из элитного "Бронеотряда Церберы" невольно становится причиной гибели юной террористки. Девушка взрывает себя у него на глазах. А вскоре он, казалось бы, случайно знакомится с её старшей сестрой, и у них начинаетсRelease Date: 1999-11-17T23:00:00ZGenre: AnimationArtist: Хироюки ОкиураName: Оборотни (Волчья стая)

MediaInfo

ОбщееПолное имя : C:\Handbrake\Оборотни (Волчья стая).1999.x264.BDRip.1024x.m4vФормат файла : MPEG-4Идентификатор кодека : M4VРазмер файла : 2,00 ГбайтПродолжительность : 1 ч. 42 м.Режим общего битрейта : ПеременныйОбщий поток : 2796 Кбит/секНазвание фильма : Оборотни (Волчья стая)Исполнитель : Хироюки ОкиураЖанр : AnimationДата записи : UTC 1999-11-17 23:00:00Дата кодирования : UTC 2013-01-04 12:55:40Дата пометки : UTC 2013-01-05 20:24:38Программа кодирования : MkvToMp4 [www.mkvtomp4.ru] version 0.221aОбложка : Yesdesc : На одном из заданий спецназовец Фусэ из элитного "Бронеотряда Церберы" невольно становится причиной гибели юной террористки. Девушка взрывает себя у него на глазах. А вскоре он, казалось бы, случайно знакомится с её старшей сестрой, и у них начинаетсldes : На одном из заданий спецназовец Фусэ из элитного "Бронеотряда Церберы" невольно становится причиной гибели юной террористки. Девушка взрывает себя у него на глазах. А вскоре он, казалось бы, случайно знакомится с её старшей сестрой, и у них начинается роман... Роман, похожий на страшную сказку о Красной Шапочке, старинную книгу с которой дарит Фусе его новая подруга. И с каждой прочитанной страницей мир вокруг них начинает меняться и рушиться. Водоворот событий - обман и неотличимая от обмана правда, предательство и политические интриги, сны и галлюцинации, хищники и жертвы - все вместе выплескивается в трагический финал, лишний раз доказывающий, что наиболее опасное из всех животных - человек.hdvd : 0stik : 9akID : -1sfID : 0cnID : 8239xid : Apple:vendor_id:1999-8239iTunEXTC : mpaa|R|400|iTunMOVI : / / / / cast / / / name / Есикацу Фудзики / / / name / Суми Муто / / / name / Хироюки Киносита / / / name / Косэй Хирота / / / name / Юкихиро Есида / / / name / Рюйти Хорибэ / / / name / Эри Сэндай / / / name / Кэндзи Накагава / / / name / Тамио Оки / / / name / Есисада Сакагути / / / directors / / / name / Хироюки Окиура / / / producers / / / name / Цутому Сугита / / / name / Hidekazu Terakawa / / / name / Митсухиса Исикава / / / screenwriters / / / name / Мамору Осии / / / name / Роберт Хомяк / / / /
ВидеоИдентификатор : 1Формат файла : AVCФормат файла/Информация : Advanced Video CodecПрофиль формата : High@L3.2Параметр CABAC формата : ДаПараметр ReFrames формата : 9 кадровИдентификатор кодека : avc1Идентификатор кодека/Информация : Advanced Video CodingПродолжительность : 1 ч. 42 м.Битрейт : 2200 Кбит/секМаксимальный битрейт : 12,7 Мбит/секШирина : 1024 пикселяВысота : 560 пикселейСоотношение сторон : 1,85:1Режим частоты кадров : ПеременныйЧастота кадров : 23,976 кадра/секМинимальная частота кадров : 23,810 кадра/секМаксимальная частота кадров : 24,272 кадра/секЦветовое пространство : YUVСубдискретизация насыщенности : 4:2:0Битовая глубина : 8 битТип развёртки : ПрогрессивнаяБит/(Пиксели*Кадры) : 0.160Размер потока : 1,57 Гбайт (79%)Библиотека кодирования : x264 core 120Настройки программы : cabac=1 / ref=9 / deblock=1:0:0 / analyse=0x3:0x113 / me=umh / subme=9 / psy=1 / psy_rd=1.00:0.00 / mixed_ref=1 / me_range=32 / chroma_me=1 / trellis=1 / 8x8dct=1 / cqm=0 / deadzone=21,11 / fast_pskip=1 / chroma_qp_offset=-2 / threads=12 / sliced_threads=0 / nr=0 / decimate=1 / interlaced=0 / bluray_compat=0 / constrained_intra=0 / bframes=6 / b_pyramid=2 / b_adapt=2 / b_bias=0 / direct=1 / weightb=1 / open_gop=0 / weightp=2 / keyint=240 / keyint_min=24 / scenecut=40 / intra_refresh=0 / rc_lookahead=40 / rc=2pass / mbtree=1 / bitrate=2200 / ratetol=1.0 / qcomp=0.60 / qpmin=3 / qpmax=69 / qpstep=4 / cplxblur=20.0 / qblur=0.5 / ip_ratio=1.40 / aq=1:1.00Язык : EnglishДата кодирования : UTC 2013-01-04 12:55:40Дата пометки : UTC 2013-01-04 12:57:21Основные цвета : BT.709Характеристики трансфера : BT.709Коэффициенты матрицы : BT.709
Аудио #1Идентификатор : 2Формат файла : AACФормат файла/Информация : Advanced Audio CodecПрофиль формата : LCИдентификатор кодека : 40Продолжительность : 1 ч. 42 м.Вид битрейта : ПеременныйБитрейт : 132 Кбит/секМаксимальный битрейт : 192 Кбит/секКаналы : 2 каналаРасположение каналов : Front: L RЧастота : 48,0 КГцМетод сжатия : С потерямиРазмер потока : 97,7 Мбайт (5%)Язык : RussianДата кодирования : UTC 2013-01-04 12:56:35Дата пометки : UTC 2013-01-04 12:57:21
Аудио #2Идентификатор : 3Формат файла : AACФормат файла/Информация : Advanced Audio CodecПрофиль формата : LCИдентификатор кодека : 40Продолжительность : 1 ч. 42 м.Вид битрейта : ПеременныйБитрейт : 161 Кбит/секМаксимальный битрейт : 228 Кбит/секКаналы : 2 каналаРасположение каналов : Front: L RЧастота : 48,0 КГцМетод сжатия : С потерямиРазмер потока : 118 Мбайт (6%)Язык : RussianДата кодирования : UTC 2013-01-04 12:56:59Дата пометки : UTC 2013-01-04 12:57:21
Аудио #3Идентификатор : 4Формат файла : AACФормат файла/Информация : Advanced Audio CodecПрофиль формата : LCИдентификатор кодека : 40Продолжительность : 1 ч. 42 м.Вид битрейта : ПеременныйБитрейт : 141 Кбит/секМаксимальный битрейт : 191 Кбит/секКаналы : 2 каналаРасположение каналов : Front: L RЧастота : 48,0 КГцМетод сжатия : С потерямиРазмер потока : 103 Мбайт (5%)Язык : EnglishДата кодирования : UTC 2013-01-04 12:57:12Дата пометки : UTC 2013-01-04 12:57:21
Аудио #4Идентификатор : 5Формат файла : AACФормат файла/Информация : Advanced Audio CodecПрофиль формата : LCИдентификатор кодека : 40Продолжительность : 1 ч. 42 м.Вид битрейта : ПеременныйБитрейт : 139 Кбит/секМаксимальный битрейт : 195 Кбит/секКаналы : 2 каналаРасположение каналов : Front: L RЧастота : 48,0 КГцМетод сжатия : С потерямиРазмер потока : 101 Мбайт (5%)Язык : JapaneseДата кодирования : UTC 2013-01-04 12:57:17Дата пометки : UTC 2013-01-04 12:57:21
Текст #1Идентификатор : 6Формат файла : Timed textРежим смешивания : sbtlИдентификатор кодека : tx3gПродолжительность : 1 ч. 36 м.Вид битрейта : ПеременныйБитрейт : 57 бит/секРазмер потока : 40,4 Кбайт (0%)Язык : RussianДата кодирования : UTC 2013-01-04 12:57:21Дата пометки : UTC 2013-01-04 12:57:21
Текст #2Идентификатор : 8Формат файла : Apple textИдентификатор кодека : textПродолжительность : 1 ч. 42 м.Вид битрейта : ПеременныйБитрейт : 1 бит/секРазмер потока : 423 байт (0%)Дата кодирования : UTC 2013-01-05 20:24:38Дата пометки : UTC 2013-01-05 20:24:38

x264 лог

x264 [info]: frame I:1198 Avg QP:13.64 size: 79006 PSNR Mean Y:49.13 U:52.72 V:53.35 Avg:50.05 Global:49.44x264 [info]: frame P:28409 Avg QP:16.32 size: 23544 PSNR Mean Y:47.10 U:52.09 V:53.11 Avg:48.21 Global:47.27x264 [info]: frame B:117417 Avg QP:18.66 size: 7854 PSNR Mean Y:45.48 U:51.65 V:52.75 Avg:46.73 Global:45.94x264 [info]: consecutive B-frames: 1.9% 1.4% 3.5% 13.5% 15.7% 29.5% 34.6%x264 [info]: mb I I16..4: 13.5% 66.7% 19.8%x264 [info]: mb P I16..4: 1.3% 5.5% 1.2% P16..4: 37.3% 26.4% 17.3% 0.0% 0.0% skip:11.0%x264 [info]: mb B I16..4: 0.1% 1.0% 0.1% B16..8: 42.7% 10.4% 2.8% direct: 2.9% skip:40.1% L0:53.4% L1:43.3% BI: 3.4%x264 [info]: 8x8 transform intra:73.7% inter:68.9%x264 [info]: coded y,uvDC,uvAC intra: 87.3% 63.4% 36.7% inter: 23.8% 14.2% 0.6%x264 [info]: i16 v,h,dc,p: 43% 24% 8% 25%x264 [info]: i8 v,h,dc,ddl,ddr,vr,hd,vl,hu: 8% 7% 6% 12% 16% 14% 14% 12% 12%x264 [info]: i4 v,h,dc,ddl,ddr,vr,hd,vl,hu: 10% 8% 3% 11% 15% 14% 14% 12% 13%x264 [info]: i8c dc,h,v,p: 35% 34% 21% 10%x264 [info]: Weighted P-Frames: Y:7.5% UV:1.7%x264 [info]: ref P L0: 35.5% 6.1% 19.1% 9.0% 8.9% 6.6% 6.8% 3.6% 4.1% 0.5% 0.0%x264 [info]: ref B L0: 47.3% 18.4% 11.9% 7.2% 5.7% 5.7% 2.9% 0.9%x264 [info]: ref B L1: 84.6% 15.4%x264 [info]: SSIM Mean Y:0.9791656 (16.812db)x264 [info]: PSNR Mean Y:45.825 U:51.741 V:52.828 Avg:47.041 Global:46.193 kb/s:2199.18

Скриншоты



[torrentc.info]_t_4307090.torrent
Торрент: Зарегистрирован ·  [ 2017-02-21 08:24 ] ·  23ffc6c3d959f9bdf91aa560b10f6b4f76d883b4

20 KB

Статус: проверено
Скачан: 1 раз
Размер: 2 GB
Оценка: 
(Голосов: 0)
Сказали спасибо: 0  Спасибо
Похожие темы
[Профиль]    [ЛС]
Показать сообщения:    
Ответить на тему

Текущее время: Сегодня 22:09

Часовой пояс: GMT + 7



Вы не можете начинать темы
Вы не можете отвечать на сообщения
Вы не можете редактировать свои сообщения
Вы не можете удалять свои сообщения
Вы не можете голосовать в опросах
Вы не можете прикреплять файлы к сообщениям
Вы можете скачивать файлы