[iPad] История кошки (Чёрная глава) / Nekomonogatari (Kuro) (Симбо Акиюки / Shinbo Akiyuki) [Сезон 1, серии 1-4 из 4] [JAP+SUB] [2012, приключения, HDTVRip, 1024x576]

Ответить на тему
Статистика раздачи [Обновить пиров]
Размер:  817 MB   |    Зарегистрирован:  1 год 11 месяцев   |    Скачан:  0 раз

Полного источника не было: Никогда

 
   
 
 
 
Автор Сообщение

torrentc.info

Создавать темы 21-Фев-2017 08:25

[Цитировать]

История кошки (Чёрная глава)
Nekomonogatari (Kuro) -
Год выхода: 2012
Страна: Япония
Жанр: приключения
Продолжительность: 4 эп. по 24 мин. (одним файлом)
Перевод : субтитры [Dreamers Team] (Перевод: heneko. Редактура: junnes. Оформление: Kermit)
Русские субтитры: есть (хардсаб)


Режиссёр: Симбо Акиюки / Shinbo Akiyuki
Студия: -Описание:
Старшеклассник Коёми Арараги из-за недавно пережитых событий стал философом и любил поговорить о жизни с разными людьми – сестренками Карэн и Цукихи, малышкой-вампиром Синобу и старшим товарищем по имени Мэмэ Осино. Увы, сестренки есть сестренки, ничего нового не скажут, Синобу обычно молчала, а Осино, как и подобает гуру, выражался мутно и загадочно. А вопрос-то парень задавал простой – почему его неодолимо влечет староста класса, красавица и умница Цубаса Ханэкава? Не получив ответа, герой решил с началом Золотой Недели окончательно разобраться с бурлящими чувствами.
Бедной Цубасе только этого не хватало! Раздираемая семейными проблемами и необходимостью «сохранять лицо», девушка впала в такой стресс, что впустила в душу бродячую сущность по имени Вредная Кошка. Этот милый дух с белым мехом, но темной изнанкой, начал по полной программе расслабляться за себя и свою хозяйку, даже могучий маг Осино оказался бессилен. Кто разрулил ситуацию, догадываетесь? Вот так Арараги обрел лучшую подругу, которая помогла ему встретить собственную судьбу, что спикирует, как коршун на добычу, за следующим поворотом сюжета!
© Hollow, World Art
-Формат файла: *.mp4
Источник: Torrentc.org: [url=viewtopic.php?t=4303464]http://Torrentc.org/forum/viewtopic.php?t=4303464[/url]
Видео: h264, 1024x576, 991 Kbps, 23.976 fps, 0.070 bit/pixel
Аудио : aac, 48000 Hz, stereo, s16, 157 kb/s

MediaInfo

General
Complete name                            : ./Nekomonogatari (Black) [iPad].mp4
Format                                   : MPEG-4
Format profile                           : Base Media
Codec ID                                 : isom
File size                                : 817 MiB
Duration                                 : 1h 39mn
Overall bit rate mode                    : Variable
Overall bit rate                         : 1 152 Kbps
Recorded date                            : UTC 2012-12-31 09:00:00
Encoded date                             : UTC 2013-01-27 10:04:17
Tagged date                              : UTC 2013-01-27 10:05:24
Writing application                      : 2iDevice for Mac OS X
Cover                                    : Yes
geID                                     : 4402
xid                                      : vendor_id:2012-730452101
desc                                     : Нашей истории бы не было, если бы на весенних каникулах старшеклассника Арараги Коёми не обратили в вампира. К счастью, ему удаётся вновь стать человеком, хотя и не до конца. Вдобавок ко всему, он встречает Ханэкаву Цубасу и теперь никак не может разобрать
iTunEXTC                                 : mpaa|UNRATED|600|
purd                                     : 2013-01-27T10:05:23Z
cnID                                     : 730452101
ldes                                     : Нашей истории бы не было, если бы на весенних каникулах старшеклассника Арараги Коёми не обратили в вампира. К счастью, ему удаётся вновь стать человеком, хотя и не до конца. Вдобавок ко всему, он встречает Ханэкаву Цубасу и теперь никак не может разобраться в своих чувствах. /  / В первый день Золотой недели Коёми видит её с пластырем на щеке – результатом побоев отца. Цубаса рассказывает поражённому Коёми, что она живёт в приёмной семье, где слова доброго не слышит. После этой встречи Цубаса находит мёртвую кошку с раздавленным хвостом и по доброте душевной хоронит её. Однако специалист по сверхъестественному Осино Мэмэ, узнав об этом, начинает не на шутку беспокоиться, что в девушку теперь вселится дух, известный как демоническая кошка. Той же ночью Коёми встречает совершенно непохожую на себя Цубасу с белоснежными волосами...
stik                                     : 0
iTunMOVI                                 :  /  /  /    /     studio /     Shaft /     cast /      /        /         name /         Kamiya Hiroshi /        /        /         name /         Horie Yui /        /        /         name /         Kitamura Eri /        /        /         name /         Iguchi Yuka /        /        /         name /         Horie Yui /        /        /         name /         Sakurai Takahiro /        /      /     directors /      /        /         name /         Itamura Tomoyuki /        /      /    /
Video
ID                                       : 1
Format                                   : AVC
Format/Info                              : Advanced Video Codec
Format profile                           : High@L4.1
Format settings, CABAC                   : Yes
Format settings, ReFrames                : 9 frames
Codec ID                                 : avc1
Codec ID/Info                            : Advanced Video Coding
Duration                                 : 1h 39mn
Bit rate                                 : 991 Kbps
Maximum bit rate                         : 9 474 Kbps
Width                                    : 1 024 pixels
Height                                   : 576 pixels
Display aspect ratio                     : 16:9
Frame rate mode                          : Constant
Frame rate                               : 23.976 fps
Color space                              : YUV
Chroma subsampling                       : 4:2:0
Bit depth                                : 8 bits
Scan type                                : Progressive
Bits/(Pixel*Frame)                       : 0.070
Stream size                              : 703 MiB (86%)
Writing library                          : x264 core 125 r2208 d9d2288
Encoding settings                        : cabac=1 / ref=9 / deblock=1:0:0 / analyse=0x3:0x133 / me=hex / subme=9 / psy=1 / psy_rd=1.00:0.00 / mixed_ref=1 / me_range=16 / chroma_me=1 / trellis=1 / 8x8dct=1 / cqm=0 / deadzone=21,11 / fast_pskip=1 / chroma_qp_offset=-2 / threads=2 / lookahead_threads=1 / sliced_threads=0 / nr=0 / decimate=1 / interlaced=0 / bluray_compat=0 / constrained_intra=0 / bframes=12 / b_pyramid=2 / b_adapt=1 / b_bias=0 / direct=1 / weightb=1 / open_gop=0 / weightp=2 / keyint=250 / keyint_min=23 / scenecut=40 / intra_refresh=0 / rc_lookahead=40 / rc=crf / mbtree=1 / crf=16.4 / qcomp=0.60 / qpmin=0 / qpmax=69 / qpstep=4 / ip_ratio=1.40 / aq=1:1.00
Tagged date                              : UTC 2013-01-27 10:05:49
Audio
ID                                       : 2
Format                                   : AAC
Format/Info                              : Advanced Audio Codec
Format profile                           : LC
Codec ID                                 : 40
Duration                                 : 1h 39mn
Bit rate mode                            : Variable
Bit rate                                 : 157 Kbps
Maximum bit rate                         : 249 Kbps
Channel(s)                               : 2 channels
Channel positions                        : Front: L R
Sampling rate                            : 48.0 KHz
Compression mode                         : Lossy
Delay relative to video                  : -417ms
Stream size                              : 112 MiB (14%)
Title                                    : ./[Commie] Nekomonogatari (Black) [DBBFE3EF].mkv_0:1.aac:lang=jpn:group=1 - Imported with GPAC 0.4.6-DEV-rev
Language                                 : Japanese
Encoded date                             : UTC 2013-01-27 10:04:38
Tagged date                              : UTC 2013-01-27 10:05:49

log x264

[libx264 @ 0x2b62da0] frame I:2250 Avg QP:11.37 size: 66050[libx264 @ 0x2b62da0] frame P:40554 Avg QP:13.84 size: 12305[libx264 @ 0x2b62da0] frame B:99851 Avg QP:17.95 size: 893[libx264 @ 0x2b62da0] consecutive B-frames: 14.5% 6.8% 3.7% 5.6% 9.0% 16.5% 20.4% 2.3% 2.1% 1.8% 1.5% 1.4% 14.6%[libx264 @ 0x2b62da0] mb I I16..4: 20.3% 53.8% 25.9%[libx264 @ 0x2b62da0] mb P I16..4: 3.7% 4.7% 2.0% P16..4: 31.3% 10.0% 10.4% 0.3% 0.1% skip:37.5%[libx264 @ 0x2b62da0] mb B I16..4: 0.0% 0.0% 0.0% B16..8: 17.4% 1.2% 0.3% direct: 0.3% skip:80.7% L0:42.4% L1:54.8% BI: 2.8%[libx264 @ 0x2b62da0] 8x8 transform intra:48.2% inter:66.2%[libx264 @ 0x2b62da0] coded y,uvDC,uvAC intra: 59.9% 62.4% 50.4% inter: 7.4% 6.3% 1.6%[libx264 @ 0x2b62da0] i16 v,h,dc,p: 40% 33% 6% 21%[libx264 @ 0x2b62da0] i8 v,h,dc,ddl,ddr,vr,hd,vl,hu: 11% 16% 18% 8% 9% 8% 9% 8% 12%[libx264 @ 0x2b62da0] i4 v,h,dc,ddl,ddr,vr,hd,vl,hu: 13% 16% 8% 9% 13% 11% 11% 9% 11%[libx264 @ 0x2b62da0] i8c dc,h,v,p: 46% 31% 17% 6%[libx264 @ 0x2b62da0] Weighted P-Frames: Y:7.1% UV:2.2%[libx264 @ 0x2b62da0] ref P L0: 60.7% 5.4% 14.3% 5.6% 3.8% 3.2% 2.5% 1.7% 1.5% 1.1% 0.2%[libx264 @ 0x2b62da0] ref B L0: 78.8% 11.3% 4.7% 1.9% 1.4% 1.1% 0.7% 0.2%[libx264 @ 0x2b62da0] ref B L1: 89.8% 10.2%[libx264 @ 0x2b62da0] kb/s:990.74

Вид в iTunes/iPad

Скриншоты




[torrentc.info]_t_4336521.torrent
Торрент: Зарегистрирован ·  [ 2017-02-21 08:24 ] ·  01ef8f43283ad08454a9a9f527dea6df870340d7

32 KB

Статус: проверено
Скачан: 0 раз
Размер: 817 MB
Оценка: 
(Голосов: 0)
Сказали спасибо: 0  Спасибо
Похожие темы
[Профиль]    [ЛС]
Показать сообщения:    
Ответить на тему

Текущее время: Сегодня 20:53

Часовой пояс: GMT + 7



Вы не можете начинать темы
Вы не можете отвечать на сообщения
Вы не можете редактировать свои сообщения
Вы не можете удалять свои сообщения
Вы не можете голосовать в опросах
Вы не можете прикреплять файлы к сообщениям
Вы можете скачивать файлы